<?xml version="1.0" standalone="no"?>
<!DOCTYPE svg PUBLIC "-//W3C//DTD SVG 1.1//EN" "http://www.w3.org/Graphics/SVG/1.1/DTD/svg11.dtd" >
<svg xmlns="http://www.w3.org/2000/svg">
<metadata></metadata>
<defs>
<font id="sofia_prolight" horiz-adv-x="1253" >
<font-face units-per-em="2048" ascent="1536" descent="-512" />
<missing-glyph horiz-adv-x="544" />
<glyph unicode="&#xfb01;" horiz-adv-x="1222" d="M926 834h-543v-834h-137v834h-187v122h187v111q0 408 334 408h102v-129h-102q-52 0 -90 -17.5t-58.5 -43.5t-32 -65.5t-14.5 -74t-2 -78.5v-111h678v-956h-135v834zM891 1313q0 42 30.5 70t73.5 28t74 -28t31 -70t-31 -70.5t-74 -28.5t-73.5 28.5t-30.5 70.5z" />
<glyph unicode="&#xfb02;" horiz-adv-x="1196" d="M580 1475h450v-1475h-135v1346h-315q-52 0 -90 -17.5t-58.5 -43.5t-32 -65.5t-14.5 -74t-2 -78.5v-111h235v-122h-235v-834h-137v834h-187v122h187v111q0 408 334 408z" />
<glyph unicode="&#xfb03;" horiz-adv-x="1935" d="M1638 834h-542v-834h-138v834h-575v-834h-137v834h-187v122h187v111q0 408 334 408h102v-129h-102q-52 0 -90 -17.5t-58.5 -43.5t-32 -65.5t-14.5 -74t-2 -78.5v-111h575v111q0 408 334 408h103v-129h-103q-52 0 -90 -17.5t-58.5 -43.5t-31.5 -66t-14 -73.5t-2 -78.5 v-111h678v-956h-136v834zM1604 1313q0 42 30.5 70t73.5 28t73.5 -28t30.5 -70t-30.5 -70.5t-73.5 -28.5t-73.5 28.5t-30.5 70.5z" />
<glyph unicode="&#xfb04;" horiz-adv-x="1908" d="M1608 0v1346h-316q-52 0 -90 -17.5t-58.5 -43.5t-31.5 -66t-14 -73.5t-2 -78.5v-111h235v-122h-235v-834h-138v834h-575v-834h-137v834h-187v122h187v111q0 408 334 408h102v-129h-102q-52 0 -90 -17.5t-58.5 -43.5t-32 -65.5t-14.5 -74t-2 -78.5v-111h575v111 q0 408 334 408h451v-1475h-135z" />
<glyph horiz-adv-x="0" />
<glyph horiz-adv-x="682" />
<glyph unicode=" "  horiz-adv-x="544" />
<glyph unicode="&#x09;" horiz-adv-x="544" />
<glyph unicode="&#xa0;" horiz-adv-x="544" />
<glyph unicode="!" horiz-adv-x="532" d="M154 86q0 45 33 76t79 31t79.5 -31t33.5 -76t-33.5 -75.5t-79.5 -30.5t-79 30.5t-33 75.5zM334 1411l-12 -1032h-111l-12 1032h135z" />
<glyph unicode="&#x22;" horiz-adv-x="667" d="M162 1411h108v-555h-108v555zM397 1411h109v-555h-109v555z" />
<glyph unicode="#" horiz-adv-x="1343" d="M1038 1051h230l-35 -127h-229l-121 -439h229l-35 -127h-229l-98 -358h-127l98 358h-295l-98 -358h-125l98 358h-225l35 127h225l119 439h-224l33 127h225l101 360h127l-101 -360h295l101 360h127zM582 924l-121 -439h295l121 439h-295z" />
<glyph unicode="$" horiz-adv-x="1134" d="M625 -16v-234h-103v232q-94 7 -174 46t-133 98t-83 132t-30 148h136q0 -53 23 -105t63.5 -93.5t102 -67t132.5 -25.5q148 0 237.5 68.5t108.5 162.5q19 121 -57.5 194.5t-210.5 104.5l-191 43q-84 19 -146.5 51.5t-97 67t-55 79t-26.5 80t-6 76.5q0 105 57.5 191.5 t150 135.5t199.5 56v195h103v-197q165 -21 269.5 -128t104.5 -271h-135q0 121 -87 194.5t-220 73.5q-122 0 -214.5 -70.5t-92.5 -179.5q0 -33 8 -61t29.5 -60.5t69 -59t118.5 -42.5l193 -43q89 -20 159.5 -55t125 -89t77.5 -133t8 -177q-12 -59 -43.5 -114t-81 -103 t-124.5 -80.5t-164 -40.5z" />
<glyph unicode="%" horiz-adv-x="1339" d="M1053 1378l-674 -1378h-96l673 1378h97zM80 1104q0 115 78.5 194.5t193.5 79.5q114 0 194.5 -80t80.5 -194q0 -115 -80 -194t-195 -79t-193.5 78.5t-78.5 194.5zM197 1104q0 -66 44.5 -111t110.5 -45q65 0 111.5 45.5t46.5 110.5q0 64 -47 111t-111 47q-65 0 -110 -46.5 t-45 -111.5zM715 252q0 115 78.5 194.5t193.5 79.5q114 0 194.5 -80t80.5 -194q0 -115 -80 -193.5t-195 -78.5t-193.5 78t-78.5 194zM831 252q0 -66 45 -111t111 -45q65 0 111.5 45.5t46.5 110.5q0 64 -46.5 111t-111.5 47t-110.5 -46.5t-45.5 -111.5z" />
<glyph unicode="&#x26;" horiz-adv-x="1359" d="M582 870h319v181h133v-183h189v-120h-189v-318q0 -58 4.5 -101.5t19 -87t38.5 -71t65.5 -44.5t98.5 -17v-129q-117 0 -200.5 52t-111.5 138q-47 -85 -151 -137.5t-222 -52.5q-200 0 -329 129.5t-129 320.5q0 122 64.5 226t172.5 163q-58 47 -90.5 115t-32.5 149 q0 143 104 243.5t257 100.5q104 0 189 -48t132 -128l-114 -71q-30 52 -84.5 82t-122.5 30q-98 0 -161.5 -59.5t-63.5 -149.5t60.5 -151.5t154.5 -61.5zM901 748h-323q-137 0 -231.5 -95t-94.5 -223q0 -135 89.5 -225t233.5 -90q139 0 230 86t96 215v332z" />
<glyph unicode="'" horiz-adv-x="432" d="M162 1411h108v-555h-108v555z" />
<glyph unicode="(" horiz-adv-x="739" d="M655 -477q-248 0 -396 253t-148 699q0 449 148 700.5t396 251.5v-135q-187 0 -298 -215.5t-111 -601.5q0 -383 111 -600t298 -217v-135z" />
<glyph unicode=")" horiz-adv-x="739" d="M84 -477v135q187 0 298.5 217.5t111.5 599.5q0 386 -111.5 601.5t-298.5 215.5v135q249 0 397 -251.5t148 -700.5q0 -446 -148.5 -699t-396.5 -253z" />
<glyph unicode="*" horiz-adv-x="997" d="M332 698l-115 86l189 232l-289 82q8 28 23.5 72.5t21.5 64.5l278 -107q-2 43 -8 146.5t-8 152.5h149l-18 -299l283 107l43 -137l-289 -78q28 -37 95 -120.5t93 -117.5q-48 -36 -114 -82l-162 248q-23 -34 -84 -121.5t-88 -128.5z" />
<glyph unicode="+" horiz-adv-x="1069" d="M469 604v352h129v-352h354v-129h-354v-354h-129v354h-352v129h352z" />
<glyph unicode="," horiz-adv-x="499" d="M141 -270l-94 28q134 189 129 432h158q-11 -163 -66.5 -282.5t-126.5 -177.5z" />
<glyph unicode="-" horiz-adv-x="993" d="M147 543h699v-129h-699v129z" />
<glyph unicode="." horiz-adv-x="520" d="M147 86q0 45 33.5 76t79.5 31t79.5 -31t33.5 -76t-33.5 -75.5t-79.5 -30.5t-79.5 30.5t-33.5 75.5z" />
<glyph unicode="/" horiz-adv-x="968" d="M905 1411l-690 -1411h-149l690 1411h149z" />
<glyph unicode="0" horiz-adv-x="1249" d="M139 678q0 123 13 222.5t47 190.5t87.5 152.5t139.5 98t199 36.5t198.5 -36.5t139 -98t86.5 -153t46 -190.5t13 -222q0 -122 -13 -221t-46 -190.5t-86.5 -152.5t-139 -97.5t-198.5 -36.5t-199 36.5t-139.5 98t-87.5 152.5t-47 190t-13 221zM274 678q0 -99 9.5 -178.5 t33.5 -153.5t63 -123t101 -78.5t144 -29.5t144 29.5t100 78.5t62 123t33 153.5t9 178.5q0 100 -9 179.5t-33 153.5t-62 123.5t-100 79t-144 29.5t-144 -29.5t-101 -79t-63 -123t-33.5 -154t-9.5 -179.5z" />
<glyph unicode="1" horiz-adv-x="659" d="M317 0v1186l-231 -80v123l367 133v-1362h-136z" />
<glyph unicode="2" horiz-adv-x="1075" d="M125 47l569 690q111 131 111 252q0 114 -81.5 184t-201.5 70q-111 0 -192 -59.5t-94 -159.5l-125 33q24 147 138.5 234t272.5 87q176 0 297 -109.5t121 -279.5q0 -180 -147 -348l-428 -506h577v-135h-817v47z" />
<glyph unicode="3" horiz-adv-x="1095" d="M166 1188q54 95 157.5 147t225.5 45q125 -9 212.5 -65t124.5 -139.5t27 -182.5q-6 -82 -58.5 -153.5t-133.5 -106.5q76 -18 136 -78.5t89 -140.5t23 -158q-15 -168 -158 -277t-330 -97q-131 10 -235 78.5t-150 172.5l123 56q31 -70 105 -117.5t168 -54.5h-3 q86 -5 163 27.5t125.5 94.5t53.5 138q4 115 -87.5 201t-217.5 86h-131v129h131q102 -1 173.5 63.5t76.5 157.5q5 96 -55.5 159t-179.5 70q-85 5 -158.5 -29t-108.5 -94z" />
<glyph unicode="4" horiz-adv-x="1200" d="M907 291v-291h-135v291h-713l748 1071h100v-946h205v-125h-205zM307 416h465v676z" />
<glyph unicode="5" horiz-adv-x="1148" d="M98 266l117 84q38 -98 136 -163.5t204 -65.5q159 0 250.5 86.5t91.5 220.5q0 68 -27.5 125t-72 92.5t-98 54.5t-109.5 19q-99 0 -174.5 -22.5t-200.5 -84.5l-53 72l119 678h667v-137h-551l-82 -451q168 84 275 84q122 0 222.5 -49t163 -148.5t62.5 -232.5 q0 -205 -131.5 -326.5t-351.5 -121.5q-141 0 -268 80t-189 206z" />
<glyph unicode="6" horiz-adv-x="1138" d="M985 1149l-119 -51q-37 76 -97.5 108t-143.5 37q-77 3 -138 -26.5t-99.5 -81.5t-63 -125t-33 -152t-6.5 -168q33 86 127.5 128.5t195.5 39.5q120 -5 216.5 -68.5t148.5 -166.5t47 -222q-8 -184 -136.5 -306t-310.5 -115q-179 8 -292.5 129t-130.5 329q-15 316 22 533 q30 185 154.5 299t304.5 108q59 -2 106.5 -13.5t94.5 -36t86 -69.5t67 -110zM287 432q-1 -132 83.5 -221t209.5 -94q125 -4 212 79.5t93 211.5q5 129 -75 219t-206 94q-127 5 -220 -78t-97 -211z" />
<glyph unicode="7" horiz-adv-x="1060" d="M1024 1362l-750 -1362h-159l678 1227h-672v135h903z" />
<glyph unicode="8" horiz-adv-x="1157" d="M229 1044q0 139 100.5 236.5t248.5 97.5q150 0 252 -97.5t102 -236.5q0 -76 -33.5 -142t-91.5 -111q106 -58 168.5 -158.5t62.5 -218.5q0 -182 -133 -308t-327 -126t-326.5 126t-132.5 308q0 119 62 219t167 158q-119 95 -119 253zM254 414q0 -125 93.5 -212t230.5 -87 t231 87t94 212t-94.5 215t-230.5 90h-15q-131 -4 -220 -94t-89 -211zM365 1044q0 -82 57.5 -140.5t144.5 -61.5h19q90 3 150.5 61.5t60.5 140.5q0 84 -63 141.5t-156 57.5q-90 0 -151.5 -57.5t-61.5 -141.5z" />
<glyph unicode="9" horiz-adv-x="1142" d="M145 207l119 51q65 -133 254 -145q77 -3 138 26.5t99.5 81.5t63 125t33 152t6.5 168q-33 -86 -127.5 -128.5t-195.5 -39.5q-120 5 -216.5 68.5t-148.5 166t-47 221.5q8 184 136 306.5t310 115.5q179 -8 293 -129.5t131 -328.5q15 -316 -22 -533q-30 -185 -154.5 -299.5 t-304.5 -108.5q-80 3 -143.5 22t-125 71t-98.5 137zM856 924q1 132 -83.5 221t-209.5 94q-125 4 -212 -79.5t-93 -211.5q-5 -129 75 -219t206 -94q127 -5 220 78t97 211z" />
<glyph unicode=":" horiz-adv-x="520" d="M147 86q0 45 33.5 76t79.5 31t79.5 -31t33.5 -76t-33.5 -75.5t-79.5 -30.5t-79.5 30.5t-33.5 75.5zM147 870q0 45 33.5 76t79.5 31t79.5 -31t33.5 -76t-33.5 -75.5t-79.5 -30.5t-79.5 30.5t-33.5 75.5z" />
<glyph unicode=";" horiz-adv-x="567" d="M182 -270l-94 28q134 189 129 432h158q-11 -163 -66.5 -282.5t-126.5 -177.5zM184 870q0 45 33.5 76t79.5 31t79.5 -31t33.5 -76t-33.5 -75.5t-79.5 -30.5t-79.5 30.5t-33.5 75.5z" />
<glyph unicode="&#x3c;" horiz-adv-x="1288" d="M1143 82l-1043 399v148l1043 399v-147l-885 -326l885 -328v-145z" />
<glyph unicode="=" horiz-adv-x="1255" d="M158 788h940v-129h-940v129zM158 369h940v-129h-940v129z" />
<glyph unicode="&#x3e;" horiz-adv-x="1288" d="M1188 481l-1043 -399v145l885 328l-885 326v147l1043 -399v-148z" />
<glyph unicode="?" horiz-adv-x="997" d="M231 1030h-135q0 177 116 286t284 109q169 0 292 -110t123 -285q0 -142 -83.5 -244t-209.5 -139q-45 -14 -71.5 -25.5t-53.5 -32.5t-39 -53t-12 -77v-80h-135v80q0 70 19.5 123.5t58 90t84.5 60.5t109 43q84 27 141 94.5t57 159.5q0 115 -83.5 187.5t-196.5 72.5 q-111 0 -188 -71.5t-77 -188.5zM262 86q0 45 33.5 76t79.5 31t79 -31t33 -76t-33 -75.5t-79 -30.5t-79.5 30.5t-33.5 75.5z" />
<glyph unicode="@" horiz-adv-x="2021" d="M1264 526v2q0 118 -83 200.5t-200 82.5t-200 -82.5t-83 -200.5q0 -117 83 -199.5t200 -82.5q111 0 197 86v-146q-97 -65 -197 -65q-169 0 -288.5 119t-119.5 288t119.5 288.5t288.5 119.5q164 0 283 -113q119 -116 125 -276v-305q0 -152 163 -152q60 0 107.5 32t75 80.5 t45 113t24 122t6.5 115.5q0 159 -65.5 299.5t-176 238.5t-258.5 155t-309 57q-160 0 -303 -62.5t-245 -168t-162 -251t-60 -305.5t60 -304t162 -248t245 -165t303 -61h37v-125h-37q-186 0 -352 70.5t-285 191.5t-188.5 288t-69.5 353t69.5 354.5t188.5 290.5t285 194t352 72 q187 0 358.5 -66.5t299 -181t203 -278t75.5 -348.5q0 -77 -12 -154t-41 -155.5t-71.5 -138.5t-110 -98t-150.5 -38q-59 0 -108 14.5t-91 46t-65.5 89t-23.5 137.5v270z" />
<glyph unicode="A" horiz-adv-x="1306" d="M184 0h-145l543 1411h143l543 -1411h-146l-143 371h-653zM932 498l-279 725l-278 -725h557z" />
<glyph unicode="B" horiz-adv-x="1271" d="M1085 1061q0 -71 -15.5 -129.5t-55 -108t-101.5 -71.5q104 -20 176 -128t72 -229q0 -167 -106.5 -281t-288.5 -114h-561v1411h514q170 0 268 -94t98 -256zM342 811h393q104 0 159.5 72.5t55.5 177.5q0 104 -67 160.5t-178 56.5h-363v-467zM756 684h-414v-549h422 q116 0 189 76.5t73 183.5q0 66 -32.5 131.5t-96 111.5t-141.5 46z" />
<glyph unicode="C" horiz-adv-x="1359" d="M1204 287l94 -97q-97 -100 -226.5 -155t-276.5 -55q-195 0 -352.5 97t-244.5 262t-87 363q0 199 87 364.5t244.5 263t352.5 97.5q147 0 275.5 -55t225.5 -155l-94 -95q-170 170 -407 170q-159 0 -285.5 -79.5t-195 -214t-68.5 -296.5t68.5 -296t195 -212.5t285.5 -78.5 q119 0 224 45.5t185 126.5z" />
<glyph unicode="D" horiz-adv-x="1478" d="M735 0h-530v1411h530q194 0 337.5 -94t215.5 -253.5t72 -361.5q0 -201 -72 -358.5t-215 -250.5t-338 -93zM340 1276v-1141h395q159 0 271 74.5t165.5 200.5t53.5 292q0 124 -31 227.5t-91 181.5t-154.5 121.5t-213.5 43.5h-395z" />
<glyph unicode="E" horiz-adv-x="1144" d="M205 1411h805v-135h-670v-516h586v-135h-586v-490h692v-135h-827v1411z" />
<glyph unicode="F" horiz-adv-x="1064" d="M205 1411h792v-135h-657v-516h522v-135h-522v-625h-135v1411z" />
<glyph unicode="G" horiz-adv-x="1548" d="M911 692h564q0 -351 -174 -531.5t-482 -180.5q-147 0 -278.5 57t-225.5 154t-149 230.5t-55 280.5q0 148 55 282t149 231t225.5 154.5t278.5 57.5q254 0 451 -163l-96 -97q-154 125 -355 125q-160 0 -292 -79t-206.5 -214.5t-74.5 -296.5t74.5 -295.5t206.5 -213 t292 -78.5q228 0 360 119t144 331h-412v127z" />
<glyph unicode="H" horiz-adv-x="1454" d="M1249 1411v-1411h-135v637h-774v-637h-135v1411h135v-647h774v647h135z" />
<glyph unicode="I" horiz-adv-x="544" d="M340 1411v-1411h-135v1411h135z" />
<glyph unicode="J" horiz-adv-x="544" d="M-207 -512l12 133q13 -4 55.5 -9t59.5 -5q147 0 216 87t69 226v1491h135v-1491q0 -75 -14 -140.5t-45.5 -122.5t-79.5 -97.5t-119.5 -64t-161.5 -23.5q-57 0 -127 16z" />
<glyph unicode="K" horiz-adv-x="1142" d="M483 705l668 -705h-182l-629 664v-664h-135v1411h135v-686l532 686h160z" />
<glyph unicode="L" horiz-adv-x="997" d="M205 1411h135v-1276h598v-135h-733v1411z" />
<glyph unicode="M" horiz-adv-x="1935" d="M969 311l534 1100h135l172 -1411h-133l-143 1169l-498 -1015h-135l-500 1015l-143 -1169h-133l172 1411h135z" />
<glyph unicode="N" horiz-adv-x="1402" d="M1198 0h-139l-719 1182v-1182h-135v1411h145l713 -1173v1173h135v-1411z" />
<glyph unicode="O" horiz-adv-x="1640" d="M111 702q0 148 55 282t149 231t225.5 154.5t278.5 57.5q197 0 360.5 -97t257 -263.5t93.5 -364.5q0 -147 -55 -280.5t-149.5 -230.5t-226.5 -154t-280 -57q-147 0 -278.5 57t-225.5 154t-149 230.5t-55 280.5zM246 702q0 -161 74.5 -295.5t206.5 -213t292 -78.5 t292.5 78.5t208 213t75.5 295.5t-75.5 296.5t-208 214.5t-292.5 79t-292 -79t-206.5 -214.5t-74.5 -296.5z" />
<glyph unicode="P" horiz-adv-x="1230" d="M205 1411h555q104 0 182.5 -36.5t124 -99t68 -137t22.5 -159.5t-22.5 -159t-68 -135.5t-124 -97.5t-182.5 -36h-418v-551h-137v1411zM760 1276h-418v-590h408q72 0 126 24.5t85 66.5t46 92.5t15 109.5q0 58 -15 110t-45 94.5t-82 67.5t-120 25z" />
<glyph unicode="Q" horiz-adv-x="1640" d="M1182 78l153 -238l-114 -73l-162 253q-113 -40 -240 -40q-147 0 -278.5 57t-225.5 154t-149 230.5t-55 280.5q0 148 55 282t149 231t225.5 154.5t278.5 57.5q197 0 360.5 -97t257 -263.5t93.5 -364.5q0 -196 -94 -361.5t-254 -262.5zM936 467l172 -277 q132 77 209.5 213.5t77.5 298.5q0 161 -75.5 296.5t-208 214.5t-292.5 79t-292 -79t-206.5 -214.5t-74.5 -296.5t74.5 -295.5t206.5 -213t292 -78.5q91 0 164 20l-160 258z" />
<glyph unicode="R" horiz-adv-x="1245" d="M745 551l390 -551h-166l-389 551h-238v-551h-137v1411h524q103 0 181 -36.5t122.5 -99t66 -137t21.5 -159.5q0 -66 -12.5 -125.5t-41 -114.5t-71 -95.5t-106.5 -65.5t-144 -27zM729 1276h-387v-590h377q72 0 125 24t83 66.5t44 93t14 109.5t-14 110t-43 94t-80 68 t-119 25z" />
<glyph unicode="S" horiz-adv-x="1163" d="M252 406q0 -53 23 -105t63.5 -93.5t102 -67t132.5 -25.5q148 0 238 68.5t109 162.5q19 121 -58 194.5t-211 104.5l-190 43q-332 75 -332 354q0 111 64 200.5t164.5 137t213.5 47.5q191 0 317 -111t126 -292h-135q0 121 -87.5 194.5t-220.5 73.5q-122 0 -214.5 -70.5 t-92.5 -179.5q0 -33 8 -61t29.5 -60.5t69 -59t118.5 -42.5l193 -43q89 -20 159.5 -55t125 -89t78 -133t8.5 -177q-13 -64 -49 -123t-93.5 -109t-145 -80t-192.5 -30q-134 0 -240.5 64t-161 160.5t-54.5 201.5h135z" />
<glyph unicode="T" horiz-adv-x="1159" d="M59 1411h1041v-135h-453v-1276h-135v1276h-453v135z" />
<glyph unicode="U" horiz-adv-x="1380" d="M690 115q154 0 259.5 100t105.5 262v934h135v-934q0 -147 -68.5 -262t-182 -175t-249.5 -60t-249.5 60t-182 175t-68.5 262v934h136v-934q0 -162 105.5 -262t258.5 -100z" />
<glyph unicode="V" horiz-adv-x="1128" d="M209 1411l354 -1190l355 1190h139l-422 -1411h-141l-424 1411h139z" />
<glyph unicode="W" horiz-adv-x="1859" d="M1669 1411h143l-477 -1411h-129l-276 946l-277 -946h-129l-477 1411h143l396 -1198l293 1012h102l293 -1012z" />
<glyph unicode="X" horiz-adv-x="1210" d="M686 760l496 -760h-166l-412 645l-411 -645h-164l493 760l-438 651h166l354 -534l357 534h163z" />
<glyph unicode="Y" horiz-adv-x="1259" d="M698 655v-655h-139v655l-530 756h161l439 -608l442 608h164z" />
<glyph unicode="Z" horiz-adv-x="1146" d="M86 135l797 1139h-768v137h934v-135l-799 -1139h799v-137h-963v135z" />
<glyph unicode="[" horiz-adv-x="612" d="M182 -463v1874h336v-137h-199v-1598h199v-139h-336z" />
<glyph unicode="\" horiz-adv-x="968" d="M754 0l-691 1411h150l690 -1411h-149z" />
<glyph unicode="]" horiz-adv-x="612" d="M430 1411v-1874h-336v139h199v1598h-199v137h336z" />
<glyph unicode="_" horiz-adv-x="1456" d="M147 -121h1162v-129h-1162v129z" />
<glyph unicode="`" horiz-adv-x="937" d="M436 1137l-172 274h168l143 -274h-139z" />
<glyph unicode="a" d="M1087 956v-956h-137v164q-52 -87 -151.5 -135.5t-208.5 -48.5q-208 0 -349 139t-141 362q0 222 140.5 359t349.5 137q111 0 209.5 -45.5t150.5 -132.5v157h137zM238 481q0 -158 101 -261t251 -103q153 0 256.5 97t103.5 267q0 85 -32 155t-84 113.5t-115 67t-129 23.5 q-152 0 -252 -99t-100 -260z" />
<glyph unicode="b" d="M166 0v1475h137v-676q52 87 151 132.5t210 45.5q136 0 247 -60t176.5 -174t65.5 -262q0 -223 -140.5 -362t-348.5 -139q-109 0 -209 48.5t-152 135.5v-164h-137zM1016 481q0 161 -100 260t-252 99q-66 0 -129.5 -23.5t-115.5 -67t-84 -113.5t-32 -155q0 -170 104 -267 t257 -97q150 0 251 103t101 261z" />
<glyph unicode="c" horiz-adv-x="1032" d="M848 207l98 -96q-140 -131 -346 -131q-136 0 -249.5 61t-182 177t-68.5 263t68.5 261.5t181.5 174.5t250 60q202 0 344 -129l-96 -96q-104 90 -248 90q-154 0 -259 -99.5t-105 -261.5t105.5 -264t258.5 -102q145 0 248 92z" />
<glyph unicode="d" d="M1087 1475v-1475h-137v164q-52 -87 -151.5 -135.5t-208.5 -48.5q-208 0 -349 139t-141 362q0 222 140.5 359t349.5 137q111 0 209.5 -45.5t150.5 -132.5v676h137zM238 481q0 -158 101 -261t251 -103q153 0 256.5 97t103.5 267q0 85 -32 155t-84 113.5t-115 67t-129 23.5 q-152 0 -252 -99t-100 -260z" />
<glyph unicode="e" horiz-adv-x="1140" d="M584 -20q-136 0 -245.5 61.5t-174 176.5t-64.5 263q0 223 138 359.5t346 136.5q207 0 338 -135.5t131 -360.5q0 -45 -2 -63h-811q19 -138 114 -220.5t230 -82.5q97 0 176 44t123 122q23 -6 71.5 -16.5t65.5 -14.5q-58 -127 -174.5 -198.5t-261.5 -71.5zM240 545h673 q-20 137 -108.5 217t-220.5 80q-135 0 -229.5 -81t-114.5 -216z" />
<glyph unicode="f" horiz-adv-x="673" d="M682 1475v-129h-102q-52 0 -90 -17.5t-58.5 -43.5t-32 -65.5t-14.5 -74t-2 -78.5v-111h235v-122h-235v-834h-137v834h-187v122h187v111q0 408 334 408h102z" />
<glyph unicode="g" horiz-adv-x="1251" d="M238 475q0 -161 100 -259.5t252 -98.5q66 0 129 23.5t115 66.5t84 113t32 155q0 170 -103.5 267.5t-256.5 97.5q-150 0 -251 -103t-101 -262zM164 -240l117 68q51 -85 128.5 -127.5t165.5 -42.5q69 0 124.5 16t103.5 53.5t80 96t50 147t17 203.5q-45 -90 -147.5 -142 t-212.5 -52q-209 0 -349.5 136.5t-140.5 358.5q0 223 141 362.5t349 139.5q109 0 208.5 -48.5t151.5 -135.5v163h137v-804q0 -629 -512 -629q-124 0 -233 59.5t-178 177.5z" />
<glyph unicode="h" horiz-adv-x="1142" d="M303 522v-522h-137v1475h137v-676q41 87 132.5 132.5t185.5 45.5q174 0 272 -112t96 -308v-557h-137v557q0 133 -61 209t-170 76q-60 0 -114.5 -18t-101 -54t-74.5 -100t-28 -148z" />
<glyph unicode="i" horiz-adv-x="466" d="M301 0v956h-135v-956h135zM131 1313q0 42 31 70t74 28t73.5 -28t30.5 -70t-30.5 -70.5t-73.5 -28.5t-74 28.5t-31 70.5z" />
<glyph unicode="j" horiz-adv-x="468" d="M131 1313q0 42 31 70t74 28t73.5 -28t30.5 -70t-30.5 -70.5t-73.5 -28.5t-74 28.5t-31 70.5zM-133 -463v129h102q52 0 90 17.5t58.5 43.5t32 65.5t14.5 74t2 78.5v1011h137v-1011q0 -408 -334 -408h-102z" />
<glyph unicode="k" horiz-adv-x="993" d="M301 522v-522h-135v1475h135v-897l379 378h192l-409 -409l518 -547h-186z" />
<glyph unicode="l" horiz-adv-x="466" d="M301 1475v-1475h-135v1475h135z" />
<glyph unicode="m" horiz-adv-x="1828" d="M989 522v-522h-137v557q0 133 -61 209t-170 76q-60 0 -114.5 -18t-101 -54t-74.5 -100t-28 -148v-522h-137v956h137v-157q27 58 88.5 100.5t121 60t108.5 17.5q120 0 204.5 -54t126.5 -155q30 64 76.5 108t98.5 64.5t94.5 28.5t85.5 8q174 0 272 -112t96 -308v-557h-137 v557q0 133 -61 209t-170 76q-60 0 -114.5 -18t-101 -54t-74.5 -100t-28 -148z" />
<glyph unicode="n" horiz-adv-x="1142" d="M303 522v-522h-137v956h137v-157q41 87 132.5 132.5t185.5 45.5q174 0 272 -112t96 -308v-557h-137v557q0 133 -61 209t-170 76q-60 0 -114.5 -18t-101 -54t-74.5 -100t-28 -148z" />
<glyph unicode="o" horiz-adv-x="1200" d="M600 -20q-136 0 -249.5 61t-182 177t-68.5 263t68.5 261.5t181.5 174.5t250 60t250 -60t181.5 -174.5t68.5 -261.5t-68.5 -263t-182 -177t-249.5 -61zM600 115q153 0 259 102t106 264t-105.5 261.5t-259.5 99.5t-259 -99.5t-105 -261.5t105.5 -264t258.5 -102z" />
<glyph unicode="p" d="M166 -463v1419h137v-165q52 88 152 137t209 49q208 0 348.5 -140.5t140.5 -363.5q0 -222 -140 -357.5t-349 -135.5q-111 0 -210.5 45t-150.5 131v-619h-137zM1016 473q0 159 -101 263t-251 104q-153 0 -257 -98t-104 -269q0 -85 32 -154.5t84.5 -112.5t115.5 -66t129 -23 q152 0 252 97.5t100 258.5z" />
<glyph unicode="q" d="M1087 956v-1419h-137v619q-51 -86 -150 -131t-210 -45q-209 0 -349.5 135.5t-140.5 357.5q0 223 141 363.5t349 140.5q109 0 208.5 -49t151.5 -137v165h137zM238 473q0 -161 100 -258.5t252 -97.5q66 0 129 23t115 66t84 112.5t32 154.5q0 171 -103.5 269t-256.5 98 q-150 0 -251 -104t-101 -263z" />
<glyph unicode="r" horiz-adv-x="772" d="M733 940l-16 -133q-65 33 -139 33q-93 0 -157 -69.5t-91 -175.5t-27 -239v-356h-137v956h137v-217q35 122 102.5 180t172.5 58q47 0 93.5 -12t61.5 -25z" />
<glyph unicode="s" horiz-adv-x="868" d="M90 274h121q41 -165 225 -165q92 0 147.5 41.5t55.5 109.5q0 51 -33 90.5t-104 57.5l-133 30q-42 10 -74 22t-69 36t-59.5 56t-34.5 83t-5 115q15 101 103.5 164t207.5 63q118 0 200.5 -61.5t100.5 -186.5h-133q-12 54 -58.5 85.5t-109.5 31.5q-69 0 -120 -33t-58 -84 q-6 -32 1 -58t20 -42t35.5 -29t41.5 -19t43 -12l131 -30q242 -58 242 -279q0 -123 -99.5 -201.5t-250.5 -78.5q-129 0 -228.5 80.5t-105.5 213.5z" />
<glyph unicode="t" horiz-adv-x="630" d="M367 0h-138v834h-172v122h172v359h138v-359h202v-122h-202v-834z" />
<glyph unicode="u" horiz-adv-x="1142" d="M840 434v522h137v-956h-137v158q-41 -87 -132.5 -132.5t-185.5 -45.5q-174 0 -272 111.5t-96 307.5v557h137v-557q0 -133 60.5 -208.5t170.5 -75.5q60 0 114.5 17.5t101 54t74.5 100t28 147.5z" />
<glyph unicode="v" horiz-adv-x="1034" d="M49 956h144l325 -796l324 796h145l-397 -956h2h-148z" />
<glyph unicode="w" horiz-adv-x="1646" d="M1233 0h-115l-297 768l-286 -768h-115l-369 956h146l276 -739l275 739h147l276 -739l275 739h145z" />
<glyph unicode="x" horiz-adv-x="989" d="M100 956h168l226 -315l227 315h168l-311 -430l380 -526h-165l-299 412l-299 -412h-164l381 526z" />
<glyph unicode="y" horiz-adv-x="1034" d="M393 -463h-141l190 465l-393 954h144l323 -778l326 778h145z" />
<glyph unicode="z" horiz-adv-x="1013" d="M913 956v-122l-645 -699h645v-135h-829v125l635 696h-600v135h794z" />
<glyph unicode="{" horiz-adv-x="808" d="M350 281v-349q0 -118 77 -194t187 -76h111v-125h-111q-168 0 -283.5 109t-115.5 286v349q0 55 -39 98t-92 43v117q53 0 92 43t39 98v352q-1 177 115 286t284 109h111v-124h-111q-110 0 -187 -76.5t-77 -194.5v-352q0 -63 -32.5 -121t-88.5 -80q52 -20 86.5 -78.5 t34.5 -119.5z" />
<glyph unicode="|" horiz-adv-x="466" d="M285 1620v-1870h-103v1870h103z" />
<glyph unicode="}" horiz-adv-x="808" d="M459 -68v349q0 61 34.5 119.5t86.5 78.5q-56 22 -88.5 80t-32.5 121v352q0 118 -77 194.5t-187 76.5h-111v124h111q168 0 284 -109t115 -286v-352q0 -55 39 -98t92 -43v-117q-53 0 -92 -43t-39 -98v-349q0 -177 -115.5 -286t-283.5 -109h-111v125h111q110 0 187 76 t77 194z" />
<glyph unicode="&#xa1;" horiz-adv-x="479" d="M352 850q0 -45 -33 -76t-79 -31t-79.5 31t-33.5 76t33.5 75.5t79.5 30.5t79 -30.5t33 -75.5zM184 557l-12 -1020h135l-12 1020h-111z" />
<glyph unicode="&#xa2;" horiz-adv-x="1071" d="M627 1194v-217q191 -9 323 -129l-96 -96q-104 90 -248 90q-154 0 -259 -99.5t-105 -261.5t105.5 -264t258.5 -102q145 0 248 92l98 -96q-131 -122 -325 -131v-230h-103v236q-182 27 -300 161.5t-118 333.5t118 331t300 159v223h103z" />
<glyph unicode="&#xa3;" horiz-adv-x="1308" d="M301 688v354q0 117 59 209t153.5 139.5t203.5 47.5q168 0 283.5 -109.5t115.5 -286.5h-135q0 117 -76.5 189t-187.5 72q-113 0 -197 -73t-84 -188v-354h332v-117h-332v-436h584q19 0 31 14.5t12 36.5v121h135v-121q0 -79 -52 -132.5t-126 -53.5h-920v135h201v436h-166 v117h166z" />
<glyph unicode="&#xa4;" horiz-adv-x="1245" d="M352 709q0 -113 79 -192t192 -79q112 0 191 79t79 192t-78.5 191.5t-191.5 78.5t-192 -79t-79 -191zM383 393l-147 -149l-78 78l147 149q-78 105 -78 238t80 237l-149 152l78 78l149 -152q104 80 238 80q130 0 237 -80l150 152l77 -78l-149 -152q80 -108 80 -237 q0 -134 -80 -238l149 -149l-77 -78l-150 149q-104 -80 -237 -80t-240 80z" />
<glyph unicode="&#xa5;" horiz-adv-x="1341" d="M268 557v96h330l-530 758h161l439 -608l442 608h164l-537 -758h332v-96h-332v-203h332v-96h-332v-258h-139v258h-330v96h330v203h-330z" />
<glyph unicode="&#xa6;" horiz-adv-x="475" d="M186 848v772h103v-772h-103zM289 520v-770h-103v770h103z" />
<glyph unicode="&#xa7;" horiz-adv-x="1058" d="M270 1032v-272q0 -116 77 -187t188 -71q119 0 182 55v-151q-86 -39 -182 -39q-109 0 -199.5 47t-145.5 137.5t-55 208.5v272q0 177 116 286t284 109q129 0 231 -67t143 -184l-131 -37q-31 72 -96 112.5t-147 40.5q-111 0 -188 -71.5t-77 -188.5zM788 240v272 q0 117 -76.5 187.5t-187.5 70.5q-119 0 -182 -55v151q86 39 182 39q109 0 199.5 -47t145.5 -137.5t55 -208.5v-272q0 -177 -116 -286.5t-284 -109.5q-129 0 -231 67.5t-143 184.5l131 37q31 -72 96 -112.5t147 -40.5q111 0 187.5 71.5t76.5 188.5z" />
<glyph unicode="&#xa8;" horiz-adv-x="1062" d="M246 1313q0 42 30.5 70t73.5 28t74 -28t31 -70t-31 -70.5t-74 -28.5t-73.5 28.5t-30.5 70.5zM608 1313q0 42 31 70t74 28t73.5 -28t30.5 -70t-30.5 -70.5t-73.5 -28.5t-74 28.5t-31 70.5z" />
<glyph unicode="&#xa9;" horiz-adv-x="1669" d="M119 702q0 147 56 281t151.5 231.5t228 155t279.5 57.5q196 0 361 -97.5t260 -264t95 -363.5q0 -147 -56 -280.5t-151.5 -230.5t-228.5 -154t-280 -57t-279.5 57t-228 154t-151.5 230.5t-56 280.5zM1112 449l-74 79q-92 -92 -196 -92q-107 0 -180.5 75t-73.5 181 t73.5 181t180.5 75q104 0 192 -88l76 76q-114 123 -268 123t-259.5 -106.5t-105.5 -260.5q0 -153 106 -259.5t259 -106.5q73 0 143.5 32t126.5 91zM233 702q0 -166 79.5 -305t218 -220t303.5 -81t303 81t217.5 220t79.5 305t-79.5 306t-217.5 221.5t-303 81.5 q-124 0 -235.5 -48t-191.5 -130t-127 -194.5t-47 -236.5z" />
<glyph unicode="&#xaa;" horiz-adv-x="974" d="M799 1356v-625h-101v90q-37 -49 -99 -76.5t-126 -27.5q-137 0 -229 91t-92 236q0 148 91.5 237t229.5 89q162 0 225 -98v84h101zM254 1044q0 -97 63 -161t156 -64q94 0 159.5 60.5t65.5 164.5q0 106 -68 166t-157 60q-94 0 -156.5 -62t-62.5 -164zM180 516v84h625v-84 h-625z" />
<glyph unicode="&#xab;" horiz-adv-x="927" d="M102 477l283 424h127l-283 -424l283 -424h-127zM410 477l282 424h127l-282 -424l282 -424h-127z" />
<glyph unicode="&#xac;" horiz-adv-x="1318" d="M1161 721v-463h-129v334h-874v129h1003z" />
<glyph unicode="&#xad;" horiz-adv-x="993" d="M147 543h699v-129h-699v129z" />
<glyph unicode="&#xae;" horiz-adv-x="1669" d="M1118 336l-188 264q83 14 129.5 78.5t46.5 144.5q0 94 -58 162t-167 68h-273v-717h113v260h76l186 -260h135zM721 940h160q52 0 83 -35t31 -82t-32 -81.5t-86 -34.5h-156v233zM119 702q0 147 56 281t151.5 231.5t228 155t279.5 57.5q196 0 361 -97.5t260 -264t95 -363.5 q0 -147 -56 -280.5t-151.5 -230.5t-228.5 -154t-280 -57t-279.5 57t-228 154t-151.5 230.5t-56 280.5zM233 702q0 -166 79.5 -305t218 -220t303.5 -81t303 81t217.5 220t79.5 305t-79.5 306t-217.5 221.5t-303 81.5q-124 0 -235.5 -48t-191.5 -130t-127 -194.5t-47 -236.5z " />
<glyph unicode="&#xaf;" horiz-adv-x="978" d="M246 1370h487v-129h-487v129z" />
<glyph unicode="&#xb0;" horiz-adv-x="749" d="M119 1171q0 106 75 181t181 75t181 -75t75 -181t-75 -181t-181 -75t-181 75t-75 181zM223 1171q0 -63 44.5 -107t107.5 -44t107 44t44 107t-44 107.5t-107 44.5t-107.5 -44.5t-44.5 -107.5z" />
<glyph unicode="&#xb1;" horiz-adv-x="1118" d="M494 690v324h129v-324h346v-129h-346v-325h-129v325h-344v129h344zM969 0h-819v129h819v-129z" />
<glyph unicode="&#xb2;" horiz-adv-x="657" d="M78 963v49l325 393q60 74 60 133q0 57 -41.5 93t-102.5 36q-58 0 -101 -34.5t-50 -92.5l-100 25q15 96 85 153.5t166 57.5q106 0 179 -67t73 -171q0 -105 -88 -207q-56 -65 -113.5 -134t-105.5 -126h307v-108h-493z" />
<glyph unicode="&#xb3;" horiz-adv-x="665" d="M100 1659q33 58 95.5 90.5t136.5 28.5q97 -6 160 -72t61 -152q-2 -48 -27 -90.5t-69 -68.5q60 -21 97.5 -85t31.5 -130q-9 -102 -95.5 -169t-199.5 -59q-78 6 -142.5 51.5t-95.5 114.5q15 8 45 25.5t45 25.5q20 -44 62.5 -73t93.5 -35q67 -5 120 34.5t56 98.5 q3 58 -45 101.5t-113 43.5h-90v105h90q44 0 75.5 27t37.5 67q7 52 -22.5 87.5t-85.5 41.5q-90 9 -144 -72q-16 11 -43 34.5t-35 29.5z" />
<glyph unicode="&#xb4;" horiz-adv-x="937" d="M575 1411l-172 -274h-139l144 274h167z" />
<glyph unicode="&#xb5;" horiz-adv-x="1140" d="M178 -334v1290h137v-557q0 -133 61 -208.5t171 -75.5q60 0 114 17.5t101 54t74.5 100t27.5 147.5v522h137v-956h-137v158q-41 -87 -132.5 -132.5t-184.5 -45.5q-163 0 -232 86v-400h-137z" />
<glyph unicode="&#xb6;" d="M651 1411v-1532h-135v647q-184 0 -313 129t-129 314q0 183 129 312.5t313 129.5h135zM766 1411h135q113 0 193 -80t80 -192v-162h-136v162q0 57 -40 97t-97 40v-1364q0 -20 -4 -43q-15 -97 -91 -163t-177 -66h-113v120h113q52 0 94.5 36t42.5 83v1532z" />
<glyph unicode="&#xb7;" horiz-adv-x="520" d="M147 539q0 45 33.5 75.5t79.5 30.5t79.5 -30.5t33.5 -75.5t-33.5 -76t-79.5 -31t-79.5 31t-33.5 76z" />
<glyph unicode="&#xb8;" horiz-adv-x="1056" d="M616 -182l-100 235h115l80 -192q34 -82 3.5 -157t-110.5 -107q-77 -32 -150.5 -1t-107.5 109q-18 47 -18 88l108 -8q4 -31 8 -39q15 -35 50.5 -50.5t70.5 -2.5q37 17 51.5 53.5t-0.5 71.5z" />
<glyph unicode="&#xb9;" horiz-adv-x="413" d="M297 963h-109v665l-131 -47v105l240 88v-811z" />
<glyph unicode="&#xba;" horiz-adv-x="972" d="M483 721q-137 0 -232 91.5t-95 236.5q0 147 94.5 236t232.5 89t233 -89t95 -236q0 -144 -95.5 -236t-232.5 -92zM483 821q95 0 162.5 64t67.5 164q0 102 -67 164.5t-163 62.5t-161.5 -62t-65.5 -165q0 -100 66 -164t161 -64zM176 516v84h625v-84h-625z" />
<glyph unicode="&#xbb;" horiz-adv-x="927" d="M825 477l-282 -424h-127l282 424l-282 424h127zM518 477l-282 -424h-127l282 424l-282 424h127z" />
<glyph unicode="&#xbc;" horiz-adv-x="1568" d="M1260 606l-232 -338h232v338zM1485 166h-117v-166h-108v166h-418l444 637h82v-535h117v-102zM340 559h-109v666l-131 -47v104l240 88v-811zM1221 1378l-918 -1398h-135l917 1398h136z" />
<glyph unicode="&#xbd;" horiz-adv-x="1572" d="M346 559h-108v666l-132 -47v104l240 88v-811zM969 0v49l325 393q60 74 60 133q0 57 -41.5 93.5t-102.5 36.5q-58 0 -101 -34.5t-50 -92.5l-101 24q15 96 85.5 153.5t166.5 57.5q106 0 179 -67t73 -171t-88 -206q-56 -65 -113.5 -134t-105.5 -126h307v-109h-493z M1198 1378l-917 -1398h-136l918 1398h135z" />
<glyph unicode="&#xbe;" horiz-adv-x="1658" d="M1114 268l232 338v-338h-232zM1454 166h117v102h-117v535h-82l-444 -637h418v-166h108v166zM137 1255q33 58 95.5 90.5t136.5 28.5q97 -6 160 -71.5t61 -151.5q-2 -48 -27 -91t-69 -69q60 -21 97.5 -85t31.5 -130q-9 -102 -95.5 -168.5t-199.5 -58.5q-78 6 -142.5 51.5 t-95.5 114.5q16 8 45.5 25.5t44.5 25.5q20 -44 62.5 -73.5t93.5 -35.5q67 -5 120 35t56 99q3 58 -45 101.5t-113 43.5h-90v104h90q44 0 75.5 27.5t37.5 67.5q7 52 -23 87.5t-86 41.5q-89 9 -143 -72q-16 12 -44.5 35.5t-33.5 27.5zM453 -20l917 1398h-135l-918 -1398h136z " />
<glyph unicode="&#xbf;" horiz-adv-x="970" d="M754 -74h135q0 -177 -116 -286t-284 -109q-169 0 -292 110t-123 285q0 142 83.5 244t209.5 139q85 26 130.5 73.5t45.5 135.5v60h135v-60q0 -257 -270 -338q-84 -27 -141.5 -94.5t-57.5 -159.5q0 -115 83.5 -187.5t196.5 -72.5q111 0 188 71.5t77 188.5zM723 870 q0 -45 -33.5 -75.5t-79.5 -30.5t-79 30.5t-33 75.5t33 76t79 31t79.5 -31t33.5 -76z" />
<glyph unicode="&#xc0;" horiz-adv-x="1306" d="M39 0h145l142 371h653l143 -371h146l-543 1411h-143zM653 1223l279 -725h-557zM584 1546l-172 275h168l143 -275h-139z" />
<glyph unicode="&#xc1;" horiz-adv-x="1306" d="M184 0h-145l543 1411h143l543 -1411h-146l-143 371h-653zM932 498l-279 725l-278 -725h557zM889 1821l-172 -275h-139l143 275h168z" />
<glyph unicode="&#xc2;" horiz-adv-x="1306" d="M184 0h-145l543 1411h143l543 -1411h-146l-143 371h-653zM932 498l-279 725l-278 -725h557zM797 1546l-146 176l-143 -176h-139l194 275h178l195 -275h-139z" />
<glyph unicode="&#xc3;" horiz-adv-x="1306" d="M184 0h-145l543 1411h143l543 -1411h-146l-143 371h-653zM932 498l-279 725l-278 -725h557zM559 1692q-25 0 -47 -23.5t-23 -69.5h-104q7 116 57.5 169t116.5 53q39 0 72.5 -21.5t61 -43t52.5 -21.5q26 0 47.5 20t22.5 66h105q-7 -115 -57.5 -165t-117.5 -50 q-38 0 -71.5 21.5t-61.5 43t-53 21.5z" />
<glyph unicode="&#xc4;" horiz-adv-x="1306" d="M39 0h145l142 371h653l143 -371h146l-543 1411h-143zM653 1223l279 -725h-557zM367 1722q0 42 30.5 70.5t73.5 28.5t73.5 -28.5t30.5 -70.5t-30.5 -70t-73.5 -28t-73.5 28t-30.5 70zM729 1722q0 42 31 70.5t74 28.5t73.5 -28.5t30.5 -70.5t-30.5 -70t-73.5 -28t-74 28 t-31 70z" />
<glyph unicode="&#xc5;" horiz-adv-x="1306" d="M39 0h145l142 371h653l143 -371h146l-543 1411h-143zM653 1223l279 -725h-557zM455 1743q0 85 56.5 143t139.5 58q85 0 143 -58t58 -143q0 -83 -58 -140t-143 -57q-83 0 -139.5 57t-56.5 140zM561 1745q0 -40 26 -66t66 -26q39 0 65.5 26.5t26.5 65.5q0 38 -27 65t-65 27 q-39 0 -65.5 -26.5t-26.5 -65.5z" />
<glyph unicode="&#xc6;" horiz-adv-x="1929" d="M416 371l-236 -371h-160l891 1411h883v-135h-670v-516h586v-135h-586v-490h693v-135h-828v371h-573zM496 498h493v778z" />
<glyph unicode="&#xc7;" horiz-adv-x="1361" d="M1206 287l94 -97q-93 -96 -216.5 -151t-262.5 -59l49 -119q34 -82 4 -157t-110 -107q-77 -32 -150.5 -1t-107.5 109q-19 49 -19 88l109 -8q0 -23 8 -39q15 -35 50.5 -50.5t70.5 -2.5q37 17 51.5 53.5t-0.5 71.5l-71 168q-261 34 -426.5 236t-165.5 480q0 199 87 364.5 t244.5 263t352.5 97.5q147 0 275.5 -55t225.5 -155l-94 -95q-170 170 -407 170q-159 0 -285.5 -79.5t-195 -214t-68.5 -296.5t68.5 -296t195 -212.5t285.5 -78.5q119 0 224 45.5t185 126.5z" />
<glyph unicode="&#xc8;" horiz-adv-x="1144" d="M1010 1411h-805v-1411h827v135h-692v490h586v135h-586v516h670v135zM563 1546l-172 275h168l143 -275h-139z" />
<glyph unicode="&#xc9;" horiz-adv-x="1144" d="M205 1411h805v-135h-670v-516h586v-135h-586v-490h692v-135h-827v1411zM799 1821l-172 -275h-140l144 275h168z" />
<glyph unicode="&#xca;" horiz-adv-x="1144" d="M205 1411h805v-135h-670v-516h586v-135h-586v-490h692v-135h-827v1411zM723 1546l-145 176l-144 -176h-139l194 275h179l194 -275h-139z" />
<glyph unicode="&#xcb;" horiz-adv-x="1144" d="M1010 1411h-805v-1411h827v135h-692v490h586v135h-586v516h670v135zM291 1722q0 42 30.5 70.5t73.5 28.5t74 -28.5t31 -70.5t-31 -70t-74 -28t-73.5 28t-30.5 70zM653 1722q0 42 31 70.5t74 28.5t73.5 -28.5t30.5 -70.5t-30.5 -70t-73.5 -28t-74 28t-31 70z" />
<glyph unicode="&#xcc;" horiz-adv-x="544" d="M340 0v1411h-135v-1411h135zM201 1546l-172 275h168l143 -275h-139z" />
<glyph unicode="&#xcd;" horiz-adv-x="544" d="M340 1411v-1411h-135v1411h135zM514 1821l-172 -275h-139l143 275h168z" />
<glyph unicode="&#xce;" horiz-adv-x="544" d="M340 1411v-1411h-135v1411h135zM418 1546l-146 176l-143 -176h-139l194 275h178l195 -275h-139z" />
<glyph unicode="&#xcf;" horiz-adv-x="544" d="M340 0v1411h-135v-1411h135zM-12 1722q0 42 30.5 70.5t73.5 28.5t74 -28.5t31 -70.5t-31 -70t-74 -28t-73.5 28t-30.5 70zM350 1722q0 42 31 70.5t74 28.5t73.5 -28.5t30.5 -70.5t-30.5 -70t-73.5 -28t-74 28t-31 70z" />
<glyph unicode="&#xd0;" horiz-adv-x="1488" d="M745 0h-530v643h-201v125h201v643h530q194 0 337.5 -94t215.5 -253.5t72 -361.5q0 -201 -72 -358.5t-215 -250.5t-338 -93zM350 768h352v-125h-352v-508h395q159 0 271 74.5t165.5 200.5t53.5 292q0 124 -31 227.5t-91 181.5t-154.5 121.5t-213.5 43.5h-395v-508z" />
<glyph unicode="&#xd1;" horiz-adv-x="1402" d="M1198 0h-139l-719 1182v-1182h-135v1411h145l713 -1173v1173h135v-1411zM608 1692q-24 0 -46 -23.5t-23 -69.5h-105q7 116 57.5 169t116.5 53q39 0 73 -21.5t61.5 -43t52.5 -21.5q26 0 47 20t22 66h105q-7 -115 -57 -165t-117 -50q-38 0 -72 21.5t-62 43t-53 21.5z" />
<glyph unicode="&#xd2;" horiz-adv-x="1640" d="M111 702q0 -147 55 -280.5t149 -230.5t225.5 -154t278.5 -57q148 0 280 57t226.5 154t149.5 230.5t55 280.5q0 198 -93.5 364.5t-257 263.5t-360.5 97q-147 0 -278.5 -57.5t-225.5 -154.5t-149 -231t-55 -282zM246 702q0 161 74.5 296.5t206.5 214.5t292 79t292.5 -79 t208 -214.5t75.5 -296.5t-75.5 -295.5t-208 -213t-292.5 -78.5t-292 78.5t-206.5 213t-74.5 295.5zM764 1546l-172 275h168l143 -275h-139z" />
<glyph unicode="&#xd3;" horiz-adv-x="1640" d="M111 702q0 148 55 282t149 231t225.5 154.5t278.5 57.5q197 0 360.5 -97t257 -263.5t93.5 -364.5q0 -147 -55 -280.5t-149.5 -230.5t-226.5 -154t-280 -57q-147 0 -278.5 57t-225.5 154t-149 230.5t-55 280.5zM246 702q0 -161 74.5 -295.5t206.5 -213t292 -78.5 t292.5 78.5t208 213t75.5 295.5t-75.5 296.5t-208 214.5t-292.5 79t-292 -79t-206.5 -214.5t-74.5 -296.5zM1036 1821l-172 -275h-139l143 275h168z" />
<glyph unicode="&#xd4;" horiz-adv-x="1640" d="M111 702q0 148 55 282t149 231t225.5 154.5t278.5 57.5q197 0 360.5 -97t257 -263.5t93.5 -364.5q0 -147 -55 -280.5t-149.5 -230.5t-226.5 -154t-280 -57q-147 0 -278.5 57t-225.5 154t-149 230.5t-55 280.5zM246 702q0 -161 74.5 -295.5t206.5 -213t292 -78.5 t292.5 78.5t208 213t75.5 295.5t-75.5 296.5t-208 214.5t-292.5 79t-292 -79t-206.5 -214.5t-74.5 -296.5zM965 1546l-146 176l-143 -176h-139l194 275h178l195 -275h-139z" />
<glyph unicode="&#xd5;" horiz-adv-x="1640" d="M111 702q0 148 55 282t149 231t225.5 154.5t278.5 57.5q197 0 360.5 -97t257 -263.5t93.5 -364.5q0 -147 -55 -280.5t-149.5 -230.5t-226.5 -154t-280 -57q-147 0 -278.5 57t-225.5 154t-149 230.5t-55 280.5zM246 702q0 -161 74.5 -295.5t206.5 -213t292 -78.5 t292.5 78.5t208 213t75.5 295.5t-75.5 296.5t-208 214.5t-292.5 79t-292 -79t-206.5 -214.5t-74.5 -296.5zM727 1692q-25 0 -47 -23.5t-23 -69.5h-104q7 116 57.5 169t116.5 53q39 0 72.5 -21.5t61 -43t52.5 -21.5q26 0 47.5 20t22.5 66h104q-7 -115 -57 -165t-117 -50 q-38 0 -71.5 21.5t-61.5 43t-53 21.5z" />
<glyph unicode="&#xd6;" horiz-adv-x="1640" d="M111 702q0 -147 55 -280.5t149 -230.5t225.5 -154t278.5 -57q148 0 280 57t226.5 154t149.5 230.5t55 280.5q0 198 -93.5 364.5t-257 263.5t-360.5 97q-147 0 -278.5 -57.5t-225.5 -154.5t-149 -231t-55 -282zM246 702q0 161 74.5 296.5t206.5 214.5t292 79t292.5 -79 t208 -214.5t75.5 -296.5t-75.5 -295.5t-208 -213t-292.5 -78.5t-292 78.5t-206.5 213t-74.5 295.5zM535 1722q0 42 30.5 70.5t73.5 28.5t73.5 -28.5t30.5 -70.5t-30.5 -70t-73.5 -28t-73.5 28t-30.5 70zM897 1722q0 42 30.5 70.5t73.5 28.5t74 -28.5t31 -70.5t-31 -70 t-74 -28t-73.5 28t-30.5 70z" />
<glyph unicode="&#xd7;" horiz-adv-x="1001" d="M410 563l-271 271l92 90l269 -269l272 271l90 -92l-270 -271l270 -270l-90 -92l-272 270l-269 -268l-92 90z" />
<glyph unicode="&#xd8;" horiz-adv-x="1636" d="M358 147l-163 -170l-76 76l164 170q-174 203 -174 479q0 148 55 282t149 231t225.5 154.5t278.5 57.5q133 0 253 -46.5t214 -129.5l178 183l76 -76l-178 -184q168 -205 168 -472q0 -147 -55 -280.5t-149.5 -230.5t-226.5 -154t-280 -57q-261 0 -459 167zM244 702 q0 -222 133 -383l813 834q-162 139 -373 139q-160 0 -292 -79t-206.5 -214.5t-74.5 -296.5zM817 115q160 0 292.5 78.5t208 213t75.5 295.5q0 215 -129 375l-811 -833q158 -129 364 -129z" />
<glyph unicode="&#xd9;" horiz-adv-x="1380" d="M690 115q154 0 259.5 100t105.5 262v934h135v-934q0 -147 -68.5 -262t-182 -175t-249.5 -60t-249.5 60t-182 175t-68.5 262v934h136v-934q0 -162 105.5 -262t258.5 -100zM625 1546l-172 275h168l143 -275h-139z" />
<glyph unicode="&#xda;" horiz-adv-x="1380" d="M690 115q154 0 259.5 100t105.5 262v934h135v-934q0 -147 -68.5 -262t-182 -175t-249.5 -60t-249.5 60t-182 175t-68.5 262v934h136v-934q0 -162 105.5 -262t258.5 -100zM913 1821l-172 -275h-139l143 275h168z" />
<glyph unicode="&#xdb;" horiz-adv-x="1380" d="M690 115q154 0 259.5 100t105.5 262v934h135v-934q0 -147 -68.5 -262t-182 -175t-249.5 -60t-249.5 60t-182 175t-68.5 262v934h136v-934q0 -162 105.5 -262t258.5 -100zM834 1546l-146 176l-143 -176h-139l194 275h178l195 -275h-139z" />
<glyph unicode="&#xdc;" horiz-adv-x="1380" d="M690 115q154 0 259.5 100t105.5 262v934h135v-934q0 -147 -68.5 -262t-182 -175t-249.5 -60t-249.5 60t-182 175t-68.5 262v934h136v-934q0 -162 105.5 -262t258.5 -100zM403 1722q0 42 31 70.5t74 28.5t73.5 -28.5t30.5 -70.5t-30.5 -70t-73.5 -28t-74 28t-31 70z M766 1722q0 42 30.5 70.5t73.5 28.5t74 -28.5t31 -70.5t-31 -70t-74 -28t-73.5 28t-30.5 70z" />
<glyph unicode="&#xdd;" horiz-adv-x="1259" d="M698 655v-655h-139v655l-530 756h161l439 -608l442 608h164zM864 1821l-172 -275h-139l143 275h168z" />
<glyph unicode="&#xde;" horiz-adv-x="1171" d="M674 295h-332v-295h-137v1411h137v-262h332q179 0 299.5 -117t120.5 -307q0 -191 -120.5 -310.5t-299.5 -119.5zM342 430h332q121 0 202.5 82t81.5 213q0 129 -81.5 209t-202.5 80h-332v-584z" />
<glyph unicode="&#xdf;" horiz-adv-x="1161" d="M166 0v1030q0 197 111 309.5t290 112.5h21q153 0 256.5 -100t103.5 -244q0 -84 -42 -156t-115 -108q120 -28 196 -148.5t76 -251.5q0 -125 -58 -229t-163.5 -165.5t-237.5 -61.5q-105 -3 -211 41v129q89 -41 207 -41q143 0 235.5 96t92.5 231q0 129 -95 228.5t-231 99.5 h-70v123h66q94 0 154.5 61.5t60.5 151.5q0 89 -63.5 150t-161.5 65h-21q-114 0 -190 -79.5t-76 -213.5v-1030h-135z" />
<glyph unicode="&#xe0;" d="M573 1137l-172 274h168l144 -274h-140zM1087 956v-956h-137v164q-52 -87 -151.5 -135.5t-208.5 -48.5q-208 0 -349 139t-141 362q0 222 140.5 359t349.5 137q111 0 209.5 -45.5t150.5 -132.5v157h137zM238 481q0 -158 101 -261t251 -103q153 0 256.5 97t103.5 267 q0 85 -32 155t-84 113.5t-115 67t-129 23.5q-152 0 -252 -99t-100 -260z" />
<glyph unicode="&#xe1;" d="M831 1411l-172 -274h-139l144 274h167zM1087 956v-956h-137v164q-52 -87 -151.5 -135.5t-208.5 -48.5q-208 0 -349 139t-141 362q0 222 140.5 359t349.5 137q111 0 209.5 -45.5t150.5 -132.5v157h137zM238 481q0 -158 101 -261t251 -103q153 0 256.5 97t103.5 267 q0 85 -32 155t-84 113.5t-115 67t-129 23.5q-152 0 -252 -99t-100 -260z" />
<glyph unicode="&#xe2;" d="M768 1137l-145 176l-144 -176h-139l195 274h178l194 -274h-139zM1087 956v-956h-137v164q-52 -87 -151.5 -135.5t-208.5 -48.5q-208 0 -349 139t-141 362q0 222 140.5 359t349.5 137q111 0 209.5 -45.5t150.5 -132.5v157h137zM238 481q0 -158 101 -261t251 -103 q153 0 256.5 97t103.5 267q0 85 -32 155t-84 113.5t-115 67t-129 23.5q-152 0 -252 -99t-100 -260z" />
<glyph unicode="&#xe3;" d="M530 1282q-25 0 -46.5 -23t-22.5 -69h-105q7 116 57.5 168.5t116.5 52.5q39 0 73 -21.5t61.5 -43t52.5 -21.5q26 0 47 20t22 66h105q-7 -115 -57 -165t-117 -50q-38 0 -72 21.5t-62 43t-53 21.5zM1087 956v-956h-137v164q-52 -87 -151.5 -135.5t-208.5 -48.5 q-208 0 -349 139t-141 362q0 222 140.5 359t349.5 137q111 0 209.5 -45.5t150.5 -132.5v157h137zM238 481q0 -158 101 -261t251 -103q153 0 256.5 97t103.5 267q0 85 -32 155t-84 113.5t-115 67t-129 23.5q-152 0 -252 -99t-100 -260z" />
<glyph unicode="&#xe4;" d="M338 1313q0 42 30.5 70t73.5 28t74 -28t31 -70t-31 -70.5t-74 -28.5t-73.5 28.5t-30.5 70.5zM700 1313q0 42 31 70t74 28t73.5 -28t30.5 -70t-30.5 -70.5t-73.5 -28.5t-74 28.5t-31 70.5zM1087 956v-956h-137v164q-52 -87 -151.5 -135.5t-208.5 -48.5q-208 0 -349 139 t-141 362q0 222 140.5 359t349.5 137q111 0 209.5 -45.5t150.5 -132.5v157h137zM238 481q0 -158 101 -261t251 -103q153 0 256.5 97t103.5 267q0 85 -32 155t-84 113.5t-115 67t-129 23.5q-152 0 -252 -99t-100 -260z" />
<glyph unicode="&#xe5;" d="M426 1333q0 85 57 143t140 58q85 0 142.5 -58t57.5 -143q0 -83 -57.5 -139.5t-142.5 -56.5q-83 0 -140 56.5t-57 139.5zM532 1335q0 -40 26.5 -66t66.5 -26q39 0 65.5 26.5t26.5 65.5q0 38 -27 65t-65 27q-39 0 -66 -26.5t-27 -65.5zM1087 956v-956h-137v164 q-52 -87 -151.5 -135.5t-208.5 -48.5q-208 0 -349 139t-141 362q0 222 140.5 359t349.5 137q111 0 209.5 -45.5t150.5 -132.5v157h137zM238 481q0 -158 101 -261t251 -103q153 0 256.5 97t103.5 267q0 85 -32 155t-84 113.5t-115 67t-129 23.5q-152 0 -252 -99t-100 -260z " />
<glyph unicode="&#xe6;" horiz-adv-x="1992" d="M1087 121v-121h-137v164q-52 -87 -151.5 -135.5t-208.5 -48.5q-208 0 -349 139t-141 362q0 222 140.5 359t349.5 137q111 0 209.5 -45.5t150.5 -132.5v157h137v-118q133 139 349 139q207 0 338 -135.5t131 -360.5q0 -45 -2 -63h-811q19 -138 114 -220.5t230 -82.5 q97 0 176 44t123 122q23 -6 71.5 -16.5t65.5 -14.5q-58 -127 -174.5 -198.5t-261.5 -71.5q-214 0 -349 141zM238 481q0 -158 101 -261t251 -103q153 0 256.5 97t103.5 267q0 85 -32 155t-84 113.5t-115 67t-129 23.5q-152 0 -252 -99t-100 -260zM1092 545h673 q-20 137 -108.5 217t-220.5 80q-135 0 -229.5 -81t-114.5 -216z" />
<glyph unicode="&#xe7;" horiz-adv-x="1034" d="M647 -18l51 -121q35 -82 4.5 -157t-110.5 -107q-77 -32 -150.5 -1t-107.5 109q-19 49 -19 88l109 -8q2 -5 3.5 -18.5t4.5 -20.5q15 -35 50.5 -50.5t70.5 -2.5q37 17 51.5 53.5t-0.5 71.5l-72 166q-187 22 -309.5 157.5t-122.5 339.5q0 147 68.5 261.5t181.5 174.5t250 60 q202 0 344 -129l-96 -96q-104 90 -248 90q-154 0 -259 -99.5t-105 -261.5t105.5 -264t258.5 -102q145 0 248 92l98 -96q-123 -114 -299 -129z" />
<glyph unicode="&#xe8;" horiz-adv-x="1140" d="M584 -20q145 0 261.5 71.5t174.5 198.5q-17 4 -65.5 14.5t-71.5 16.5q-44 -78 -123 -122t-176 -44q-135 0 -230 82.5t-114 220.5h811q2 18 2 63q0 225 -131 360.5t-338 135.5q-208 0 -346 -136.5t-138 -359.5q0 -148 64.5 -263t174 -176.5t245.5 -61.5zM913 545h-673 q20 135 114.5 216t229.5 81q132 0 220.5 -80t108.5 -217zM518 1137l-172 274h168l143 -274h-139z" />
<glyph unicode="&#xe9;" horiz-adv-x="1140" d="M584 -20q-136 0 -245.5 61.5t-174 176.5t-64.5 263q0 223 138 359.5t346 136.5q207 0 338 -135.5t131 -360.5q0 -45 -2 -63h-811q19 -138 114 -220.5t230 -82.5q97 0 176 44t123 122q23 -6 71.5 -16.5t65.5 -14.5q-58 -127 -174.5 -198.5t-261.5 -71.5zM240 545h673 q-20 137 -108.5 217t-220.5 80q-135 0 -229.5 -81t-114.5 -216zM805 1411l-172 -274h-139l143 274h168z" />
<glyph unicode="&#xea;" horiz-adv-x="1140" d="M584 -20q-136 0 -245.5 61.5t-174 176.5t-64.5 263q0 223 138 359.5t346 136.5q207 0 338 -135.5t131 -360.5q0 -45 -2 -63h-811q19 -138 114 -220.5t230 -82.5q97 0 176 44t123 122q23 -6 71.5 -16.5t65.5 -14.5q-58 -127 -174.5 -198.5t-261.5 -71.5zM240 545h673 q-20 137 -108.5 217t-220.5 80q-135 0 -229.5 -81t-114.5 -216zM721 1137l-146 176l-143 -176h-139l194 274h179l194 -274h-139z" />
<glyph unicode="&#xeb;" horiz-adv-x="1140" d="M584 -20q145 0 261.5 71.5t174.5 198.5q-17 4 -65.5 14.5t-71.5 16.5q-44 -78 -123 -122t-176 -44q-135 0 -230 82.5t-114 220.5h811q2 18 2 63q0 225 -131 360.5t-338 135.5q-208 0 -346 -136.5t-138 -359.5q0 -148 64.5 -263t174 -176.5t245.5 -61.5zM913 545h-673 q20 135 114.5 216t229.5 81q132 0 220.5 -80t108.5 -217zM291 1313q0 42 30.5 70t73.5 28t74 -28t31 -70t-31 -70.5t-74 -28.5t-73.5 28.5t-30.5 70.5zM653 1313q0 42 31 70t74 28t73.5 -28t30.5 -70t-30.5 -70.5t-73.5 -28.5t-74 28.5t-31 70.5z" />
<glyph unicode="&#xec;" horiz-adv-x="466" d="M301 0v956h-135v-956h135zM160 1137l-172 274h168l143 -274h-139z" />
<glyph unicode="&#xed;" horiz-adv-x="466" d="M301 956v-956h-135v956h135zM475 1411l-172 -274h-139l143 274h168z" />
<glyph unicode="&#xee;" horiz-adv-x="466" d="M301 956v-956h-135v956h135zM381 1137l-145 176l-144 -176h-139l194 274h179l194 -274h-139z" />
<glyph unicode="&#xef;" horiz-adv-x="466" d="M301 0v956h-135v-956h135zM-49 1313q0 42 30.5 70t73.5 28t74 -28t31 -70t-31 -70.5t-74 -28.5t-73.5 28.5t-30.5 70.5zM313 1313q0 42 31 70t74 28t73.5 -28t30.5 -70t-30.5 -70.5t-73.5 -28.5t-74 28.5t-31 70.5z" />
<glyph unicode="&#xf0;" horiz-adv-x="1202" d="M549 1352l139 88l62 -72l-142 -88l398 -498q94 -127 94 -301q0 -147 -68.5 -263t-182 -177t-249.5 -61t-249.5 61t-182 177t-68.5 263q0 111 39.5 205t106.5 157t154.5 98.5t183.5 35.5q20 0 57 -7t57 -14l-202 252l-181 -114l-51 77l174 111l-164 193h168zM600 115 q153 0 259 102t106 264t-105.5 261.5t-259.5 99.5t-259 -99.5t-105 -261.5t105.5 -264t258.5 -102z" />
<glyph unicode="&#xf1;" horiz-adv-x="1142" d="M303 522v-522h-137v956h137v-157q41 87 132.5 132.5t185.5 45.5q174 0 272 -112t96 -308v-557h-137v557q0 133 -61 209t-170 76q-60 0 -114.5 -18t-101 -54t-74.5 -100t-28 -148zM479 1282q-25 0 -46.5 -23t-22.5 -69h-105q7 116 57.5 168.5t116.5 52.5q39 0 73 -21.5 t61.5 -43t52.5 -21.5q26 0 47 20t22 66h105q-7 -115 -57 -165t-117 -50q-38 0 -72 21.5t-62 43t-53 21.5z" />
<glyph unicode="&#xf2;" horiz-adv-x="1200" d="M600 -20q136 0 249.5 61t182 177t68.5 263t-68.5 261.5t-181.5 174.5t-250 60t-250 -60t-181.5 -174.5t-68.5 -261.5t68.5 -263t182 -177t249.5 -61zM600 115q-153 0 -258.5 102t-105.5 264t105 261.5t259 99.5t259.5 -99.5t105.5 -261.5t-106 -264t-259 -102zM537 1137 l-172 274h167l144 -274h-139z" />
<glyph unicode="&#xf3;" horiz-adv-x="1200" d="M600 -20q-136 0 -249.5 61t-182 177t-68.5 263t68.5 261.5t181.5 174.5t250 60t250 -60t181.5 -174.5t68.5 -261.5t-68.5 -263t-182 -177t-249.5 -61zM600 115q153 0 259 102t106 264t-105.5 261.5t-259.5 99.5t-259 -99.5t-105 -261.5t105.5 -264t258.5 -102zM827 1411 l-172 -274h-139l143 274h168z" />
<glyph unicode="&#xf4;" horiz-adv-x="1200" d="M600 -20q-136 0 -249.5 61t-182 177t-68.5 263t68.5 261.5t181.5 174.5t250 60t250 -60t181.5 -174.5t68.5 -261.5t-68.5 -263t-182 -177t-249.5 -61zM600 115q153 0 259 102t106 264t-105.5 261.5t-259.5 99.5t-259 -99.5t-105 -261.5t105.5 -264t258.5 -102zM743 1137 l-145 176l-143 -176h-140l195 274h178l195 -274h-140z" />
<glyph unicode="&#xf5;" horiz-adv-x="1200" d="M600 -20q-136 0 -249.5 61t-182 177t-68.5 263t68.5 261.5t181.5 174.5t250 60t250 -60t181.5 -174.5t68.5 -261.5t-68.5 -263t-182 -177t-249.5 -61zM600 115q153 0 259 102t106 264t-105.5 261.5t-259.5 99.5t-259 -99.5t-105 -261.5t105.5 -264t258.5 -102zM506 1282 q-25 0 -47 -23t-23 -69h-104q7 116 57.5 168.5t116.5 52.5q39 0 72.5 -21.5t61 -43t52.5 -21.5q26 0 47.5 20t22.5 66h104q-7 -115 -57 -165t-117 -50q-38 0 -71.5 21.5t-61.5 43t-53 21.5z" />
<glyph unicode="&#xf6;" horiz-adv-x="1200" d="M600 -20q136 0 249.5 61t182 177t68.5 263t-68.5 261.5t-181.5 174.5t-250 60t-250 -60t-181.5 -174.5t-68.5 -261.5t68.5 -263t182 -177t249.5 -61zM600 115q-153 0 -258.5 102t-105.5 264t105 261.5t259 99.5t259.5 -99.5t105.5 -261.5t-106 -264t-259 -102zM313 1313 q0 42 31 70t74 28t73.5 -28t30.5 -70t-30.5 -70.5t-73.5 -28.5t-74 28.5t-31 70.5zM676 1313q0 42 30.5 70t73.5 28t74 -28t31 -70t-31 -70.5t-74 -28.5t-73.5 28.5t-30.5 70.5z" />
<glyph unicode="&#xf7;" horiz-adv-x="1187" d="M481 213q0 45 33.5 75.5t79.5 30.5t79.5 -30.5t33.5 -75.5t-33.5 -76t-79.5 -31t-79.5 31t-33.5 76zM481 870q0 45 33.5 76t79.5 31t79.5 -31t33.5 -76t-33.5 -75.5t-79.5 -30.5t-79.5 30.5t-33.5 75.5zM1030 606h-872v-129h872v129z" />
<glyph unicode="&#xf8;" horiz-adv-x="1196" d="M281 86l-105 -109l-76 76l105 109q-107 136 -107 319q0 147 68.5 261.5t181.5 174.5t250 60q173 0 307 -98l103 106l75 -76l-100 -102q115 -134 115 -326q0 -147 -68.5 -263t-182 -177t-249.5 -61q-184 0 -317 106zM598 115q153 0 259 102t106 264q0 133 -76 228 l-510 -525q94 -69 221 -69zM598 842q-154 0 -259.5 -99.5t-105.5 -261.5q0 -128 68 -221l508 520q-89 62 -211 62z" />
<glyph unicode="&#xf9;" horiz-adv-x="1142" d="M840 434v522h137v-956h-137v158q-41 -87 -132.5 -132.5t-185.5 -45.5q-174 0 -272 111.5t-96 307.5v557h137v-557q0 -133 60.5 -208.5t170.5 -75.5q60 0 114.5 17.5t101 54t74.5 100t28 147.5zM512 1137l-172 274h168l143 -274h-139z" />
<glyph unicode="&#xfa;" horiz-adv-x="1142" d="M840 434v522h137v-956h-137v158q-41 -87 -132.5 -132.5t-185.5 -45.5q-174 0 -272 111.5t-96 307.5v557h137v-557q0 -133 60.5 -208.5t170.5 -75.5q60 0 114.5 17.5t101 54t74.5 100t28 147.5zM788 1411l-172 -274h-139l144 274h167z" />
<glyph unicode="&#xfb;" horiz-adv-x="1142" d="M840 434v522h137v-956h-137v158q-41 -87 -132.5 -132.5t-185.5 -45.5q-174 0 -272 111.5t-96 307.5v557h137v-557q0 -133 60.5 -208.5t170.5 -75.5q60 0 114.5 17.5t101 54t74.5 100t28 147.5zM729 1137l-145 176l-144 -176h-139l195 274h178l194 -274h-139z" />
<glyph unicode="&#xfc;" horiz-adv-x="1142" d="M840 434v522h137v-956h-137v158q-41 -87 -132.5 -132.5t-185.5 -45.5q-174 0 -272 111.5t-96 307.5v557h137v-557q0 -133 60.5 -208.5t170.5 -75.5q60 0 114.5 17.5t101 54t74.5 100t28 147.5zM299 1313q0 42 30.5 70t73.5 28t74 -28t31 -70t-31 -70.5t-74 -28.5 t-73.5 28.5t-30.5 70.5zM662 1313q0 42 30.5 70t73.5 28t73.5 -28t30.5 -70t-30.5 -70.5t-73.5 -28.5t-73.5 28.5t-30.5 70.5z" />
<glyph unicode="&#xfd;" horiz-adv-x="1034" d="M393 -463h-141l190 465l-393 954h144l323 -778l326 778h145zM727 1411l-172 -274h-139l143 274h168z" />
<glyph unicode="&#xfe;" d="M166 -463v1938h137v-674q52 87 151 132.5t210 45.5q136 0 247 -60t176.5 -174t65.5 -262q0 -223 -140.5 -362t-348.5 -139q-109 0 -209 48.5t-152 135.5v-629h-137zM1016 483q0 161 -100 260t-252 99q-66 0 -129.5 -23.5t-115.5 -67t-84 -113.5t-32 -155q0 -170 104 -267 t257 -97q150 0 251 103t101 261z" />
<glyph unicode="&#xff;" horiz-adv-x="1034" d="M252 -463h141l594 1419h-145l-326 -778l-323 778h-144l393 -954zM238 1313q0 42 30.5 70t73.5 28t73.5 -28t30.5 -70t-30.5 -70.5t-73.5 -28.5t-73.5 28.5t-30.5 70.5zM600 1313q0 42 31 70t74 28t73.5 -28t30.5 -70t-30.5 -70.5t-73.5 -28.5t-74 28.5t-31 70.5z" />
<glyph unicode="&#x152;" horiz-adv-x="2334" d="M1395 1411h805v-135h-670v-516h586v-135h-586v-490h692v-135h-827v274q-99 -137 -249 -215.5t-327 -78.5q-147 0 -278.5 57t-225.5 154t-149 230.5t-55 280.5q0 148 55 282t149 231t225.5 154.5t278.5 57.5q176 0 326.5 -78.5t249.5 -215.5v278zM246 702 q0 -161 74.5 -295.5t206.5 -213t292 -78.5q156 0 286 74.5t207 203.5t83 285v49q-4 116 -50.5 220t-122.5 180t-181 120.5t-222 44.5q-160 0 -292 -79t-206.5 -214.5t-74.5 -296.5z" />
<glyph unicode="&#x153;" horiz-adv-x="2004" d="M1448 -20q-136 0 -246 62t-172 173q-66 -110 -180.5 -172.5t-249.5 -62.5q-136 0 -249.5 61t-182 177t-68.5 263t68.5 261.5t181.5 174.5t250 60q135 0 249.5 -61.5t180.5 -170.5q62 109 172 170.5t246 61.5q207 0 338 -135.5t131 -360.5q0 -45 -2 -63h-811 q19 -138 114 -220.5t230 -82.5q97 0 176 44t123 122q23 -6 71.5 -16.5t65.5 -14.5q-58 -127 -174.5 -198.5t-261.5 -71.5zM600 115q149 0 254 97t111 253v16q0 162 -105.5 261.5t-259.5 99.5t-259 -99.5t-105 -261.5t105.5 -264t258.5 -102zM1104 545h674q-20 137 -109 217 t-221 80q-135 0 -229.5 -81t-114.5 -216z" />
<glyph unicode="&#x178;" horiz-adv-x="1259" d="M698 655v-655h-139v655l-530 756h161l439 -608l442 608h164zM346 1722q0 42 31 70.5t74 28.5t73.5 -28.5t30.5 -70.5t-30.5 -70t-73.5 -28t-74 28t-31 70zM709 1722q0 42 30.5 70.5t73.5 28.5t74 -28.5t31 -70.5t-31 -70t-74 -28t-73.5 28t-30.5 70z" />
<glyph unicode="&#x2c6;" horiz-adv-x="997" d="M643 1137l-145 176l-144 -176h-139l195 274h178l194 -274h-139z" />
<glyph unicode="&#x2dc;" horiz-adv-x="862" d="M338 1282q-25 0 -47 -23t-23 -69h-104q7 116 57.5 168.5t116.5 52.5q39 0 72.5 -21.5t61 -43t52.5 -21.5q26 0 47.5 20t22.5 66h104q-7 -115 -57 -165t-117 -50q-38 0 -71.5 21.5t-61.5 43t-53 21.5z" />
<glyph unicode="&#x2000;" horiz-adv-x="972" />
<glyph unicode="&#x2001;" horiz-adv-x="1944" />
<glyph unicode="&#x2002;" horiz-adv-x="972" />
<glyph unicode="&#x2003;" horiz-adv-x="1944" />
<glyph unicode="&#x2004;" horiz-adv-x="648" />
<glyph unicode="&#x2005;" horiz-adv-x="486" />
<glyph unicode="&#x2006;" horiz-adv-x="324" />
<glyph unicode="&#x2007;" horiz-adv-x="324" />
<glyph unicode="&#x2008;" horiz-adv-x="243" />
<glyph unicode="&#x2009;" horiz-adv-x="388" />
<glyph unicode="&#x200a;" horiz-adv-x="108" />
<glyph unicode="&#x2010;" horiz-adv-x="993" d="M147 543h699v-129h-699v129z" />
<glyph unicode="&#x2011;" horiz-adv-x="993" d="M147 543h699v-129h-699v129z" />
<glyph unicode="&#x2012;" horiz-adv-x="993" d="M147 543h699v-129h-699v129z" />
<glyph unicode="&#x2013;" horiz-adv-x="1222" d="M150 535h923v-121h-923v121z" />
<glyph unicode="&#x2014;" horiz-adv-x="1665" d="M150 535h1366v-121h-1366v121z" />
<glyph unicode="&#x2018;" horiz-adv-x="485" d="M311 1427l78 -26q-55 -76 -87.5 -181t-31.5 -229h-135q11 151 62.5 268.5t113.5 167.5z" />
<glyph unicode="&#x2019;" horiz-adv-x="481" d="M195 991l-78 27q122 168 119 409h135q-11 -151 -62.5 -268.5t-113.5 -167.5z" />
<glyph unicode="&#x201a;" horiz-adv-x="477" d="M147 -137l-77 26q121 167 118 410h136q-11 -151 -62.5 -268.5t-114.5 -167.5z" />
<glyph unicode="&#x201c;" horiz-adv-x="722" d="M549 1427l78 -26q-55 -76 -87.5 -181t-31.5 -229h-135q11 151 62.5 268.5t113.5 167.5zM311 1427l78 -26q-55 -76 -87.5 -181t-31.5 -229h-135q11 151 62.5 268.5t113.5 167.5z" />
<glyph unicode="&#x201d;" horiz-adv-x="718" d="M195 991l-78 27q122 168 119 409h135q-11 -151 -62.5 -268.5t-113.5 -167.5zM432 991l-78 27q122 168 119 409h135q-11 -151 -62.5 -268.5t-113.5 -167.5z" />
<glyph unicode="&#x201e;" horiz-adv-x="714" d="M147 -137l-77 26q121 167 118 410h136q-11 -151 -62.5 -268.5t-114.5 -167.5zM385 -137l-78 26q55 76 87.5 181t31.5 229h135q-11 -151 -62.5 -268.5t-113.5 -167.5z" />
<glyph unicode="&#x2022;" horiz-adv-x="937" d="M174 489q0 120 86 200.5t209 80.5t209 -80.5t86 -200.5t-86 -200t-209 -80t-209 80t-86 200z" />
<glyph unicode="&#x2026;" horiz-adv-x="1503" d="M147 86q0 45 33.5 76t79.5 31t79.5 -31t33.5 -76t-33.5 -75.5t-79.5 -30.5t-79.5 30.5t-33.5 75.5zM639 86q0 45 33.5 76t79.5 31t79 -31t33 -76t-33 -75.5t-79 -30.5t-79.5 30.5t-33.5 75.5zM1130 86q0 45 33.5 76t79.5 31t79.5 -31t33.5 -76t-33.5 -75.5t-79.5 -30.5 t-79.5 30.5t-33.5 75.5z" />
<glyph unicode="&#x202f;" horiz-adv-x="388" />
<glyph unicode="&#x2039;" horiz-adv-x="620" d="M102 475l283 424h127l-283 -424l283 -424h-127z" />
<glyph unicode="&#x203a;" horiz-adv-x="620" d="M518 475l-282 -424h-127l282 424l-282 424h127z" />
<glyph unicode="&#x205f;" horiz-adv-x="486" />
<glyph unicode="&#x20ac;" horiz-adv-x="1632" d="M1067 766h-956v96h215q51 248 232.5 406.5t436.5 158.5q147 0 276 -55t226 -155l-94 -95q-170 170 -408 170q-198 0 -341.5 -120t-188.5 -310h602v-96zM111 631h956v-96h-600q47 -187 189 -303.5t339 -116.5q119 0 224.5 45.5t185.5 126.5l94 -97q-97 -100 -227 -155 t-277 -55q-252 0 -433.5 155.5t-233.5 399.5h-217v96z" />
<glyph unicode="&#x2122;" horiz-adv-x="1677" d="M621 651l79 656h-223v-656h-104v656h-234v104h672l262 -571l262 571h99l90 -760h-103l-69 572l-232 -506h-92l-235 502l-68 -568h-104z" />
<glyph unicode="&#x25fc;" horiz-adv-x="952" d="M0 952h952v-952h-952v952z" />
</font>
</defs>
</svg>
