<?xml version="1.0" standalone="no"?>
<!DOCTYPE svg PUBLIC "-//W3C//DTD SVG 1.1//EN" "http://www.w3.org/Graphics/SVG/1.1/DTD/svg11.dtd" >
<svg xmlns="http://www.w3.org/2000/svg">
<metadata></metadata>
<defs>
<font id="novecento_sans_widemedium" horiz-adv-x="499" >
<font-face units-per-em="2048" ascent="1681" descent="-367" />
<missing-glyph horiz-adv-x="512" />
<glyph horiz-adv-x="0" />
<glyph unicode="&#xd;" horiz-adv-x="682" />
<glyph unicode=" "  horiz-adv-x="512" />
<glyph unicode="&#x09;" horiz-adv-x="512" />
<glyph unicode="&#xa0;" horiz-adv-x="512" />
<glyph unicode="!" horiz-adv-x="593" d="M410 1434v-1078h-226v1078h226zM297 -18q-62 0 -96.5 34.5t-34.5 87.5t34.5 87t96.5 34q64 0 98.5 -34t34.5 -87q0 -55 -34.5 -88.5t-98.5 -33.5z" />
<glyph unicode="&#x22;" horiz-adv-x="765" d="M313 1434l-12 -486h-186l-13 486h211zM662 1434l-13 -486h-188l-12 486h213z" />
<glyph unicode="#" horiz-adv-x="1357" d="M956 391h177l-56 -196h-174l-53 -195h-186l51 195h-281l-51 -195h-186l51 195h-176l55 196h176l96 367h-174l56 196h172l53 193h186l-51 -193h279l53 193h186l-51 -193h178l-55 -196h-176zM588 758l-99 -367h279l98 367h-278z" />
<glyph unicode="$" horiz-adv-x="989" d="M924 317q0 -144 -89 -230t-243 -105v-166h-176v166q-49 6 -92.5 19t-86.5 37t-76.5 57t-58.5 82t-36 110l196 51q11 -86 75.5 -140.5t172.5 -54.5q93 0 148 42t55 122q0 28 -8 51.5t-19 40.5t-32.5 32t-39.5 24t-50 19t-52 15t-58.5 14.5t-58.5 14.5q-51 13 -88 26 t-81.5 38.5t-72.5 57.5t-47.5 83.5t-19.5 116.5q0 138 81.5 221t229.5 102v168h178v-168q136 -15 221.5 -85t114.5 -191l-186 -49q-37 166 -233 166q-101 0 -152 -42t-51 -112q0 -35 13 -62t32 -44.5t57 -33t70 -24.5t90 -22q44 -10 71 -17.5t71 -23t72 -31.5t61 -42.5 t52.5 -58t32.5 -76.5t13 -98z" />
<glyph unicode="%" horiz-adv-x="1480" d="M342 453q-272 0 -272 358t272 358q270 0 270 -358t-270 -358zM1004 1147l-386 -1147h-143l385 1147h144zM342 602q63 0 94 46.5t31 162.5q0 115 -31 162t-94 47q-64 0 -94.5 -46.5t-30.5 -162.5q0 -117 30 -163t95 -46zM1141 -12q-273 0 -273 356q0 358 273 358 q270 0 270 -358q0 -356 -270 -356zM1141 135q63 0 94 47t31 162q0 117 -31 164t-94 47t-94 -47t-31 -164q0 -116 30.5 -162.5t94.5 -46.5z" />
<glyph unicode="&#x26;" horiz-adv-x="1261" d="M1030 492v-121q0 -193 -121.5 -293.5t-351.5 -100.5q-225 0 -341 91t-116 243q0 111 60 185t153 94v4q-37 8 -71.5 27.5t-64.5 51.5t-48 81.5t-18 109.5q0 152 108 228.5t307 76.5q395 0 494 -299l-197 -53q-28 85 -92.5 129.5t-185.5 44.5q-215 0 -215 -147 q0 -72 56 -117t171 -45h649v-190h-176zM815 492h-266q-109 0 -170.5 -42t-61.5 -126q0 -83 60.5 -127.5t181.5 -44.5q131 0 193.5 52.5t62.5 168.5v119z" />
<glyph unicode="'" horiz-adv-x="419" d="M313 1434l-12 -486h-186l-13 486h211z" />
<glyph unicode="(" horiz-adv-x="768" d="M668 1628l61 -207q-207 -68 -304 -273.5t-97 -555.5q0 -349 97.5 -555.5t303.5 -274.5l-61 -206q-86 30 -160 75.5t-150 129t-129 192.5t-86.5 273.5t-33.5 365.5q0 841 559 1036z" />
<glyph unicode=")" horiz-adv-x="768" d="M100 -442l-61 206q207 68 304 273.5t97 554.5q0 351 -96.5 557t-304.5 274l61 205q86 -29 160 -74.5t150 -128.5t129 -192t86.5 -274t33.5 -367q0 -839 -559 -1034z" />
<glyph unicode="*" horiz-adv-x="985" d="M610 1053l144 -199l-121 -88l-141 203l-140 -203l-123 86l144 201l-230 69l45 142l230 -74v244h147v-244l232 74l45 -142z" />
<glyph unicode="+" horiz-adv-x="1368" d="M1081 492h-297v-324h-198l-2 324h-299v188h299v321h198l2 -321h297v-188z" />
<glyph unicode="," d="M223 10q-45 -4 -72.5 22t-27.5 74q0 50 34.5 82.5t90.5 32.5q65 0 105 -42.5t40 -115.5q0 -83 -55.5 -161t-149.5 -109l-86 92q43 13 76 49.5t45 75.5z" />
<glyph unicode="-" horiz-adv-x="1183" d="M989 492h-796v188h796v-188z" />
<glyph unicode="." d="M250 -18q-64 0 -98.5 34.5t-34.5 87.5t35 87t98 34q62 0 96.5 -34t34.5 -87q0 -54 -34 -88t-97 -34z" />
<glyph unicode="/" horiz-adv-x="1034" d="M993 1434l-717 -1434h-235l721 1434h231z" />
<glyph unicode="0" horiz-adv-x="1079" d="M541 1169q220 0 342.5 -152.5t122.5 -443.5t-122.5 -443.5t-342.5 -152.5q-221 0 -344 152.5t-123 443.5t123 443.5t344 152.5zM541 973q-130 0 -191 -97.5t-61 -302.5q0 -204 61 -301.5t191 -97.5q128 0 189 98t61 301q0 205 -60.5 302.5t-189.5 97.5z" />
<glyph unicode="1" horiz-adv-x="737" d="M369 0v688q0 39 2.5 92.5t4.5 86t1 32.5h-4q-1 0 -15 -16.5t-33.5 -38t-31.5 -31.5l-96 -96l-125 153l311 277h201v-1147h-215z" />
<glyph unicode="2" horiz-adv-x="1017" d="M96 0v233l408 302q112 85 159.5 144.5t47.5 127.5q0 78 -54.5 129t-158.5 51q-96 0 -149.5 -48t-61.5 -124l-203 55q15 80 55 139t98 93t126.5 50.5t148.5 16.5q200 0 309 -94.5t109 -259.5q0 -69 -19.5 -125.5t-63.5 -106.5t-90.5 -88t-125.5 -92l-289 -208l2 -7 q5 0 29.5 1t63.5 2.5t79 1.5h418v-193h-838z" />
<glyph unicode="3" horiz-adv-x="1021" d="M711 602v-8q102 -9 169.5 -81.5t67.5 -193.5q0 -155 -115 -248.5t-309 -93.5q-180 0 -300 85.5t-150 240.5l188 53q20 -94 86 -144t170 -50q106 0 163.5 52t57.5 134q0 83 -59 125.5t-162 42.5h-121v156h113q103 0 160 42t57 120q0 75 -55.5 117t-155.5 42 q-202 0 -225 -176l-195 53q32 158 150 228.5t291 70.5q196 0 297.5 -80t101.5 -219q0 -62 -20 -112t-53.5 -81.5t-72 -50t-79.5 -24.5z" />
<glyph unicode="4" horiz-adv-x="1099" d="M850 0h-215v281h-567v190l458 676h324v-684h166v-182h-166v-281zM635 709v270h-8l-359 -512l4 -4h172h191v246z" />
<glyph unicode="5" horiz-adv-x="1036" d="M319 672l7 -4q30 30 92 55t137 25q183 0 290 -104.5t107 -272.5q0 -178 -118 -286t-314 -108q-171 0 -288 84t-148 220l186 47q19 -79 83.5 -125.5t160.5 -46.5q105 0 169.5 58t64.5 157q0 100 -64.5 157.5t-175.5 57.5q-84 0 -137.5 -31.5t-75.5 -75.5l-176 47l108 621 h652v-201h-508l-25 -147q-15 -90 -27 -127z" />
<glyph unicode="6" horiz-adv-x="1034" d="M362 664l7 -7q74 80 211 80q164 0 273.5 -101t109.5 -263q0 -177 -123.5 -286.5t-325.5 -109.5q-198 0 -322 109t-124 303q0 108 43.5 208t132.5 214l264 336h229zM518 160q109 0 175 59t67 160q0 98 -65 155.5t-177 57.5q-110 0 -174.5 -57.5t-64.5 -155.5 q0 -101 65 -160t174 -59z" />
<glyph unicode="7" horiz-adv-x="991" d="M946 989l-559 -989h-221l414 733q27 48 59 100.5t49 80t17 28.5l-5 6l-151 -2h-488v201h885v-158z" />
<glyph unicode="8" horiz-adv-x="1042" d="M74 313q0 63 21.5 115.5t58.5 87t81 56t93 30.5v6q-26 4 -58 21t-66 46.5t-56.5 79t-22.5 109.5q0 130 107 217.5t288 87.5t288 -87t107 -216q0 -60 -22.5 -110.5t-56 -80t-65 -46.5t-56.5 -21v-6q46 -8 89.5 -29t81 -55t60.5 -87.5t23 -117.5q0 -148 -117.5 -243 t-327.5 -95t-330 93.5t-120 244.5zM311 854q0 -77 58.5 -120.5t150.5 -43.5q95 2 152 46.5t57 117.5q0 75 -57.5 119.5t-151.5 44.5q-96 0 -152.5 -45t-56.5 -119zM279 326q0 -89 66 -138t175 -49q110 0 176 49.5t66 137.5q0 87 -65.5 134.5t-176.5 47.5t-176 -48t-65 -134z " />
<glyph unicode="9" horiz-adv-x="1048" d="M682 471l-6 6q-72 -78 -213 -78q-172 0 -279.5 105.5t-107.5 265.5q0 176 127 287.5t323 111.5q125 0 226 -46t163 -141t62 -226q0 -73 -17.5 -139.5t-53 -128t-71 -108.5t-90.5 -110l-237 -270h-240zM522 985q-107 0 -175 -55.5t-68 -165.5q0 -109 67.5 -162t175.5 -53 q110 0 177 54.5t67 162.5q0 109 -68 164t-176 55z" />
<glyph unicode=":" d="M250 680q-64 0 -98.5 35t-34.5 88t35 87t98 34q62 0 96.5 -34t34.5 -87q0 -55 -34.5 -89t-96.5 -34zM250 -18q-64 0 -98.5 34.5t-34.5 87.5t35 87t98 34q62 0 96.5 -34t34.5 -87q0 -54 -34 -88t-97 -34z" />
<glyph unicode=";" d="M250 680q-64 0 -98.5 35t-34.5 88t35 87t98 34q62 0 96.5 -34t34.5 -87q0 -55 -34.5 -89t-96.5 -34zM223 12q-45 -4 -72.5 22.5t-27.5 74.5t34.5 80t90.5 32q66 0 105.5 -42t39.5 -116q0 -83 -55.5 -161t-149.5 -109l-86 92q43 14 76.5 51t44.5 76z" />
<glyph unicode="&#x3c;" horiz-adv-x="1368" d="M1114 78l-924 430v156l924 430v-197l-674 -309v-6l674 -308v-196z" />
<glyph unicode="=" horiz-adv-x="1368" d="M1081 700h-796v189h796v-189zM1081 291h-796v188h796v-188z" />
<glyph unicode="&#x3e;" horiz-adv-x="1368" d="M928 582v6l-674 309v197l924 -430v-156l-924 -430v196z" />
<glyph unicode="?" horiz-adv-x="1163" d="M449 356v359q233 80 323 150t90 163q0 41 -13.5 77.5t-42.5 69.5t-83.5 52.5t-128.5 19.5q-132 0 -204 -56t-105 -165l-213 57q44 179 183 279t349 100q119 0 214 -33t153.5 -90t89.5 -129t31 -153q0 -73 -24.5 -137t-63 -109.5t-95.5 -85.5t-111 -66t-120 -51v-252h-229 zM561 -18q-64 0 -98.5 34.5t-34.5 87.5t35 87t98 34t98 -34t35 -87q0 -54 -35 -88t-98 -34z" />
<glyph unicode="@" horiz-adv-x="1617" d="M1163 874v-401q0 -96 17.5 -139t74.5 -43q65 0 98 71t33 191q0 268 -154.5 431t-418.5 163t-423 -167.5t-159 -442.5q0 -156 41.5 -274.5t116 -190t170 -107t209.5 -35.5q49 0 94 5t78.5 12.5t65.5 19t52 21.5t40.5 23t30 21t21.5 18t13 11l125 -96q-71 -71 -213 -126.5 t-301 -55.5q-153 0 -279.5 47t-221.5 138.5t-148 238t-53 334.5q0 160 55 299.5t151.5 239.5t234.5 157t298 57q166 0 304.5 -57t232.5 -156.5t146 -236.5t52 -295q0 -189 -80.5 -306.5t-238.5 -117.5q-84 0 -149.5 41.5t-86.5 99.5h-4q-27 -61 -92.5 -101t-151.5 -40 q-144 0 -242 99.5t-98 283.5q0 185 91 288t239 103q137 0 211 -100h4v75h215zM780 305q78 0 120.5 53t47.5 138v32q0 87 -45.5 140t-122.5 53q-81 0 -123.5 -57t-42.5 -154q0 -96 45 -150.5t121 -54.5z" />
<glyph unicode="A" horiz-adv-x="1515" d="M1100 334h-686l-135 -334h-238l592 1434h252l590 -1434h-242zM1018 539l-139 346q-117 291 -119 293h-6q-6 -6 -121 -293l-137 -346h522z" />
<glyph unicode="B" horiz-adv-x="1282" d="M913 772v-8q54 -11 105 -36.5t97 -67.5t74 -108t28 -146q0 -183 -129 -294.5t-369 -111.5h-576v1434h549q193 0 312.5 -103.5t119.5 -257.5q0 -122 -64 -199.5t-147 -101.5zM369 836h293q105 0 170 54t65 150q0 92 -66 147.5t-182 55.5h-280v-407zM369 190h333 q129 0 203 60.5t74 171.5q0 112 -79 177t-200 65h-331v-474z" />
<glyph unicode="C" horiz-adv-x="1560" d="M1264 469l221 -59q-83 -204 -264 -320.5t-412 -116.5q-209 0 -376.5 92t-264 263.5t-96.5 392.5q0 218 96 387.5t264 261.5t379 92q237 0 409.5 -112.5t247.5 -286.5l-223 -59q-25 43 -60 82t-88 78t-129 62t-165 23q-226 0 -365 -144.5t-139 -385.5q0 -242 141 -387.5 t359 -145.5q160 0 281.5 76.5t183.5 206.5z" />
<glyph unicode="D" horiz-adv-x="1507" d="M143 1434h535q218 0 390 -88.5t270 -254t98 -380.5t-98.5 -378t-268 -248t-383.5 -85h-543v1434zM369 211h305q109 0 204 30.5t169.5 90t117.5 157t43 222.5t-43 224t-117.5 161t-172 94.5t-209.5 32.5h-297v-1012z" />
<glyph unicode="E" horiz-adv-x="1236" d="M143 0v1434h992v-211h-766v-375h587v-211h-587v-426h772v-211h-998z" />
<glyph unicode="F" horiz-adv-x="1200" d="M1124 1223h-755v-410h596v-211h-596v-602h-226v1434h981v-211z" />
<glyph unicode="G" horiz-adv-x="1611" d="M1499 0h-203q0 60 0.5 99t1 54.5t0.5 18.5h-4q-73 -76 -198.5 -137.5t-288.5 -61.5q-151 0 -286 54t-234 150t-157 236.5t-58 305.5q0 219 96.5 389t265 262t379.5 92q236 0 410 -113t245 -286l-221 -59q-17 31 -39 60.5t-61 64.5t-85.5 60.5t-113.5 42.5t-143 17 q-226 0 -366 -144.5t-140 -385.5t147 -387t377 -146q87 0 167.5 21.5t138 56t98 71.5t61.5 73v159h-403v209h614v-776z" />
<glyph unicode="H" horiz-adv-x="1447" d="M1079 0v633h-710v-633h-226v1434h226v-584h710v584h226v-1434h-226z" />
<glyph unicode="I" horiz-adv-x="512" d="M143 0v1434h226v-1434h-226z" />
<glyph unicode="J" horiz-adv-x="1019" d="M887 1434v-840q0 -300 -132.5 -460.5t-385.5 -160.5q-234 0 -369 156l129 176q91 -119 240 -119q158 0 224 103.5t66 320.5v824h228z" />
<glyph unicode="K" horiz-adv-x="1368" d="M1073 0l-479 696l-225 -239v-457h-226v1434h226v-430v-281h4l207 227l440 484h270l-528 -576l575 -858h-264z" />
<glyph unicode="L" horiz-adv-x="1159" d="M143 0v1434h226v-1223h718v-211h-944z" />
<glyph unicode="M" horiz-adv-x="1652" d="M1284 0v547v86t0.5 83.5t0.5 78.5t0.5 72.5t1 63.5t0.5 53.5t0.5 40.5t0.5 27v9h-4l-18 -35q-19 -36 -61.5 -114.5t-90.5 -163.5l-221 -394h-131l-221 387q-50 88 -92.5 168t-60.5 116l-19 36h-4v-9q0 -10 0.5 -27t0.5 -40.5t0.5 -53.5t1 -63.5t0.5 -72.5t0.5 -78.5 t0.5 -83.5v-86v-547h-226v1434h240l444 -795h7l444 795h231v-1434h-225z" />
<glyph unicode="N" horiz-adv-x="1505" d="M1133 0l-764 1063h-4v-11q0 -10 0.5 -28.5t1 -43t1 -56t1 -65t0.5 -72.5v-76v-711h-226v1434h230l762 -1049h6v11q0 10 -0.5 28.5t-1 42.5t-1 54.5t-1 62t-0.5 68v69.5v713h225v-1434h-229z" />
<glyph unicode="O" horiz-adv-x="1636" d="M72 717q0 164 57 303.5t156 236t236.5 151t295.5 54.5t296.5 -54.5t238.5 -151t157.5 -236.5t57.5 -303q0 -217 -98.5 -387.5t-269 -263.5t-382.5 -93q-211 0 -380.5 93t-267 263.5t-97.5 387.5zM299 717q0 -240 147 -385.5t371 -145.5q226 0 374 145t148 386 q0 242 -148 387t-374 145q-225 0 -371.5 -145.5t-146.5 -386.5z" />
<glyph unicode="P" horiz-adv-x="1206" d="M143 1434h467q257 0 401 -120.5t144 -342.5q0 -216 -145 -338.5t-400 -122.5h-241v-510h-226v1434zM369 709h247q155 0 234.5 67t79.5 193q0 128 -81 193t-233 65h-247v-518z" />
<glyph unicode="Q" horiz-adv-x="1636" d="M1567 717q0 -148 -47.5 -277t-132 -223.5t-201.5 -155.5t-254 -79v-263h-230v263q-279 37 -454.5 237.5t-175.5 497.5q0 164 57 303.5t156 236t236.5 151t295.5 54.5t296.5 -54.5t238.5 -151t157.5 -236.5t57.5 -303zM817 186q147 0 265 63.5t187.5 185.5t69.5 282 q0 242 -148.5 387t-373.5 145t-371.5 -145.5t-146.5 -386.5q0 -240 147 -385.5t371 -145.5z" />
<glyph unicode="R" horiz-adv-x="1261" d="M932 0l-307 535q-41 -3 -111 -3h-145v-532h-226v1434h473q257 0 403 -122.5t146 -336.5q0 -158 -80.5 -259.5t-228.5 -140.5l346 -575h-270zM369 717h266q299 0 299 248q0 129 -79.5 195.5t-227.5 66.5h-258v-510z" />
<glyph unicode="S" horiz-adv-x="1236" d="M66 371l217 59q13 -126 111.5 -191t252.5 -65q139 0 216 55t77 162q0 42 -11.5 75t-36 56t-50 38.5t-66.5 27.5t-71.5 19t-79.5 16.5t-76 15.5q-58 13 -102 26.5t-99.5 36t-95 53t-75 72t-53.5 99.5t-18 129q0 195 135 301t369 106q212 0 353 -90t192 -272l-215 -58 q-62 220 -332 220q-135 0 -203.5 -52.5t-68.5 -146.5q0 -35 11 -64t26 -49.5t45.5 -38.5t55.5 -29.5t71 -24t76 -19t86 -17.5q53 -10 93.5 -20t91 -28t87.5 -39.5t74.5 -54t61.5 -72.5t39 -95t15 -121q0 -205 -136.5 -311.5t-385.5 -106.5q-100 0 -187 18t-171 60.5 t-143 124t-80 195.5z" />
<glyph unicode="T" horiz-adv-x="1318" d="M1247 1223h-475v-1223h-225v1223h-475v211h1175v-211z" />
<glyph unicode="U" horiz-adv-x="1435" d="M1307 1434v-822q0 -309 -154.5 -474t-435.5 -165t-435.5 165t-154.5 474v822h229v-820q0 -217 89.5 -322.5t273.5 -105.5q186 0 275 105.5t89 322.5v820h224z" />
<glyph unicode="V" horiz-adv-x="1439" d="M858 0h-276l-551 1434h254l270 -729q45 -122 88 -239.5t61 -166.5t19 -51h4q1 1 166 448l272 738h244z" />
<glyph unicode="W" horiz-adv-x="2056" d="M1331 0l-194 629q-27 88 -54 180t-39.5 137.5t-13.5 46.5h-4q-1 -1 -13 -47t-39 -141.5t-56 -190.5l-183 -614h-252l-448 1434h252l194 -660q29 -94 65.5 -214t56 -183.5t20.5 -65.5h4q5 10 118 402l160 547h269l159 -549q113 -392 117 -400h4q1 2 19.5 63l55.5 183 t62 205l205 672h225l-448 -1434h-242z" />
<glyph unicode="X" horiz-adv-x="1443" d="M1120 0l-231 324q-45 62 -91 126.5t-62 86.5t-17 22h-2q-1 0 -174 -240l-228 -319h-274l547 743l-510 691h276l224 -310q154 -215 155 -215h2q4 0 150 217l215 308h270l-504 -693l537 -741h-283z" />
<glyph unicode="Y" horiz-adv-x="1384" d="M805 604v-604h-227v604l-547 830l262 2l287 -447q29 -43 58 -88.5t43 -68t15 -23.5h4q1 1 15 23.5t42.5 67t57.5 87.5l295 447h244z" />
<glyph unicode="Z" horiz-adv-x="1347" d="M1266 1217l-727 -826q-48 -55 -90.5 -99.5t-59 -61t-16.5 -17.5l2 -6l9 1q10 0 27 0.5t39 1t53 1t62 0.5h701v-211h-1184v209l752 848q42 48 80.5 88.5t54.5 56.5t16 17l-4 6h-9q-10 0 -27 -0.5t-38 -1t-50 -0.5h-58h-697v211h1164v-217z" />
<glyph unicode="[" horiz-adv-x="792" d="M713 -227v-205h-523v2068h523v-202h-303v-1661h303z" />
<glyph unicode="\" horiz-adv-x="1034" d="M993 0h-235l-717 1434h231z" />
<glyph unicode="]" horiz-adv-x="792" d="M80 1438v204h522v-2068h-522v203h303v1661h-303z" />
<glyph unicode="^" horiz-adv-x="1368" d="M682 1253l-385 -505l-166 108l455 586h194l457 -586l-168 -108z" />
<glyph unicode="_" horiz-adv-x="1499" d="M1356 -178h-1213v178h1213v-178z" />
<glyph unicode="`" horiz-adv-x="1128" d="M545 1888l219 -344h-207l-192 285z" />
<glyph unicode="a" horiz-adv-x="1239" d="M874 270h-514l-100 -270h-219l448 1147h261l448 -1147h-223zM807 457l-82 219q-32 86 -58 159.5t-35.5 102t-10.5 29.5h-7l-110 -303l-76 -207h379z" />
<glyph unicode="b" horiz-adv-x="1120" d="M811 614v-8q46 -11 87.5 -32t77 -54.5t56.5 -83.5t21 -110q0 -141 -107.5 -233.5t-304.5 -92.5h-498v1147h486q154 0 254 -86.5t100 -206.5q0 -99 -50.5 -158.5t-121.5 -81.5zM358 676h230q77 0 128.5 38.5t51.5 108.5q0 63 -46.5 103.5t-131.5 40.5h-232v-291zM358 180 h273q91 0 144.5 42.5t53.5 117.5q0 77 -56 122.5t-146 45.5h-269v-328z" />
<glyph unicode="c" horiz-adv-x="1308" d="M1026 367l205 -56q-73 -154 -215 -244t-332 -90q-176 0 -316 76.5t-218 212t-78 305.5t78 306.5t218 214t314 77.5q185 0 330.5 -87.5t214.5 -250.5l-205 -55q-14 21 -17.5 26.5t-24.5 32t-36 39.5t-45 35.5t-59 33.5t-70 20.5t-86 9.5q-175 0 -285 -111.5t-110 -288.5 q0 -178 110.5 -288.5t282.5 -110.5q119 0 207 53.5t137 139.5z" />
<glyph unicode="d" horiz-adv-x="1271" d="M143 1147h420q185 0 328.5 -68.5t226 -201t82.5 -308.5q0 -177 -82.5 -307t-224.5 -196t-324 -66h-426v1147zM358 201h209q193 0 304.5 92t111.5 276q0 185 -112.5 281t-309.5 96h-203v-745z" />
<glyph unicode="e" horiz-adv-x="1087" d="M143 0v1147h838v-201h-623v-262h469v-190h-469v-293h633v-201h-848z" />
<glyph unicode="f" horiz-adv-x="1026" d="M950 946h-592v-315h437v-201h-437v-430h-215v1147h807v-201z" />
<glyph unicode="g" horiz-adv-x="1374" d="M1262 0h-193q0 51 0.5 84.5t0.5 45.5l1 13h-4q-55 -63 -156 -114.5t-239 -51.5q-168 0 -305 75.5t-216 212.5t-79 308q0 258 172.5 427t437.5 169q180 0 328.5 -85.5t218.5 -252.5l-197 -53q-44 84 -134.5 140.5t-213.5 56.5q-177 0 -286 -109t-109 -293 q0 -181 114.5 -291t307.5 -110q114 0 215 46t141 99v119h-330v191h525v-627z" />
<glyph unicode="h" horiz-adv-x="1265" d="M1122 0h-215v483h-549v-483h-215v1147h215v-463h549v463h215v-1147z" />
<glyph unicode="i" d="M143 0v1147h215v-1147h-215z" />
<glyph unicode="j" horiz-adv-x="890" d="M760 1147v-662q0 -247 -113.5 -377.5t-331.5 -130.5q-203 0 -315 121l117 156q74 -80 196 -80q128 0 180 78t52 244v651h215z" />
<glyph unicode="k" horiz-adv-x="1210" d="M932 0l-375 549l-199 -209v-340h-215v1147h215v-299l-2 -254h6q50 50 138 145l379 408h268l-432 -455l465 -692h-248z" />
<glyph unicode="l" horiz-adv-x="995" d="M143 0v1147h215v-946h566v-201h-781z" />
<glyph unicode="m" horiz-adv-x="1452" d="M1094 0v547l2 284h-6l-295 -555h-142l-299 568h-4v-20q0 -20 0.5 -51.5t1 -68t0.5 -76.5v-69v-559h-209v1147h263l210 -385q32 -57 61.5 -113.5t42 -82t13.5 -25.5h6q2 0 15 24.5t44.5 84.5t61.5 114l207 383h242v-1147h-215z" />
<glyph unicode="n" horiz-adv-x="1308" d="M1165 0h-221l-584 817h-6v-7q0 -8 0.5 -21.5t1 -32t1 -41.5t1 -47.5t0.5 -53.5v-57v-557h-215v1147h222l583 -801h4v7q0 7 -0.5 19.5t-0.5 29v37.5t-0.5 43.5t-0.5 48.5v51v565h215v-1147z" />
<glyph unicode="o" horiz-adv-x="1357" d="M72 573q0 170 79 307t217.5 213t309.5 76q172 0 311.5 -76t219 -213t79.5 -307q0 -171 -79.5 -307.5t-219 -212.5t-311.5 -76q-171 0 -309.5 76t-217.5 212.5t-79 307.5zM289 573q0 -177 109.5 -288t279.5 -111t280.5 111t110.5 288t-110.5 288.5t-280.5 111.5 t-279.5 -111.5t-109.5 -288.5z" />
<glyph unicode="p" horiz-adv-x="1058" d="M143 1147h406q217 0 339 -102t122 -275t-121.5 -273t-339.5 -100h-191v-397h-215v1147zM358 575h199q114 0 174 51t60 140q0 87 -59.5 138.5t-174.5 51.5h-199v-381z" />
<glyph unicode="q" horiz-adv-x="1353" d="M1288 573q0 -231 -141 -393t-363 -196v-222h-215v224q-220 34 -358.5 195.5t-138.5 391.5q0 170 79 307t217.5 213t309.5 76q172 0 311.5 -76t219 -213t79.5 -307zM678 174q170 0 280.5 111t110.5 288t-110.5 288.5t-280.5 111.5t-279.5 -111.5t-109.5 -288.5t109.5 -288 t279.5 -111z" />
<glyph unicode="r" horiz-adv-x="1126" d="M834 0l-256 424q-37 -2 -119 -2h-101v-422h-215v1147h412q219 0 341 -96t122 -267q0 -126 -64.5 -207t-171.5 -112l283 -465h-231zM358 590h207q234 0 234 182q0 180 -234 180h-207v-362z" />
<glyph unicode="s" horiz-adv-x="1050" d="M66 287l196 51q11 -84 84 -138.5t197 -54.5q105 0 164 42t59 126q0 25 -5 46t-17.5 37.5t-25 29t-36 23t-41.5 18t-51 15.5t-55 12.5t-62.5 12.5t-64.5 13q-52 12 -90 24t-84 36.5t-75 56.5t-49 83t-20 116q0 163 112.5 248t315.5 85q184 0 301.5 -71.5t155.5 -210.5 l-191 -49q-43 161 -254 161q-105 0 -163 -39.5t-58 -113.5q0 -29 8 -51.5t29.5 -40t41.5 -29t61 -22.5t70.5 -17.5t86.5 -17.5q47 -9 80 -18t82.5 -26.5t83.5 -42.5t66.5 -60.5t49.5 -87.5t17 -116q0 -172 -119.5 -256t-322.5 -84q-79 0 -149 13.5t-140.5 45.5t-120.5 96 t-67 155z" />
<glyph unicode="t" horiz-adv-x="1134" d="M1063 946h-387v-946h-215v946h-389v201h991v-201z" />
<glyph unicode="u" horiz-adv-x="1267" d="M1141 1147v-633q0 -269 -133 -403t-375 -134t-374 134t-132 403v633h219v-653q0 -163 71.5 -241.5t219.5 -78.5q147 0 219 79t72 241v653h213z" />
<glyph unicode="v" horiz-adv-x="1261" d="M758 0h-254l-473 1147h237l215 -524q45 -113 83 -211t53 -138t16 -41h6q0 1 15.5 40.5t53 136.5t83.5 211l211 526h229z" />
<glyph unicode="w" horiz-adv-x="1718" d="M1100 0l-135 428q-29 92 -55 176.5t-36.5 119.5t-11.5 36h-4q-1 -1 -11.5 -35.5t-37 -121t-55.5 -177.5l-136 -426h-221l-362 1147h229l154 -494q32 -105 60 -200t38.5 -133t11.5 -39h4q2 2 101 329l125 408h227l121 -408q26 -87 50.5 -171t34.5 -120.5t11 -37.5h4 q1 1 12 39.5t39 132.5t62 200l156 494h208l-362 -1147h-221z" />
<glyph unicode="x" horiz-adv-x="1220" d="M920 0l-179 240q-40 54 -77 104t-51 69t-15 19h-2q-2 0 -141 -194l-170 -238h-244l430 588l-397 559h256l145 -205q145 -201 146 -201h2q3 0 149 209l137 197h234l-402 -559l439 -588h-260z" />
<glyph unicode="y" horiz-adv-x="1142" d="M678 0h-215v446l-432 701h245l164 -264q33 -55 68.5 -115t53 -89t18.5 -30h4q1 1 18.5 30.5t53 89t71.5 116.5l160 262h225l-434 -701v-446z" />
<glyph unicode="z" horiz-adv-x="1153" d="M1069 942l-500 -532q-68 -72 -120.5 -124t-69.5 -68l-17 -15l3 -4h9q8 0 23.5 0.5t35 1t47 0.5h55.5h534v-201h-987v205l528 553q58 60 105.5 107.5l61.5 61.5t14 15l-3 4h-155h-533v201h969v-205z" />
<glyph unicode="{" horiz-adv-x="872" d="M502 1118v-192q0 -73 -16 -133t-37.5 -93.5t-48.5 -58t-44 -32.5t-28 -11q10 -2 28 -11.5t44 -34.5t48 -59.5t38 -93.5t16 -129v-190q0 -79 15.5 -137.5t41.5 -93.5t64.5 -56.5t78 -29t89.5 -7.5v-192q-235 0 -365.5 126t-130.5 365v209q0 64 -13.5 111t-31 70t-41 36.5 t-37.5 16.5t-25 4h-4v194q34 6 38 7q103 33 113 196q1 17 1 35v209q0 238 130.5 363.5t365.5 125.5v-194q-64 0 -111 -12.5t-90 -45.5t-65.5 -99t-22.5 -163z" />
<glyph unicode="|" horiz-adv-x="428" d="M123 1587h182v-1739h-182v1739z" />
<glyph unicode="}" horiz-adv-x="872" d="M373 80v190q0 73 16 133t37 93.5t48 58t43.5 32.5t27.5 11q-10 2 -27.5 11.5t-43.5 34.5t-48 60t-37.5 93.5t-15.5 128.5v192q0 97 -23 163.5t-66 99.5t-90.5 46t-111.5 13v194q236 0 366 -126.5t130 -366.5v-207q0 -64 13.5 -111.5t31 -70.5t41 -37t37 -17t25.5 -4h3 v-192q-35 -6 -46 -10q-105 -44 -105 -230v-207q0 -239 -130 -365t-366 -126v194q64 0 111.5 13t90.5 46t66 99.5t23 163.5z" />
<glyph unicode="~" horiz-adv-x="1368" d="M1098 721l35 -182q-23 -32 -86.5 -63.5t-143.5 -31.5q-77 0 -209 43t-213 43q-121 0 -209 -92l-39 180q28 35 91 68t143 33q77 0 208 -43t212 -43q118 0 211 88z" />
<glyph unicode="&#xa1;" horiz-adv-x="593" d="M297 1452q63 0 98 -35t35 -88t-34.5 -87t-98.5 -34q-62 0 -96.5 34t-34.5 87q0 55 34 89t97 34zM184 0v1077h228v-1077h-228z" />
<glyph unicode="&#xa2;" horiz-adv-x="1189" d="M610 227q102 0 178.5 48t118.5 135l201 -54q-54 -128 -162 -212t-246 -107v-205h-182v205q-196 31 -321 179t-125 366q0 214 121 356.5t323 171.5v213h184v-213q142 -20 252.5 -100.5t161.5 -223.5l-199 -55q-40 93 -115 145t-184 52q-156 0 -245.5 -94t-89.5 -252 q0 -162 90.5 -258.5t238.5 -96.5z" />
<glyph unicode="&#xa3;" horiz-adv-x="1058" d="M977 201v-201h-903v201q71 11 95 50t24 116q0 37 -7 102h-114v170h96q-14 163 -14 203q0 150 100.5 238.5t280.5 88.5q376 0 426 -331l-199 -54q-20 107 -72.5 153t-146.5 46q-86 0 -133.5 -49t-47.5 -146q0 -30 13 -149h381v-170h-361q8 -55 8 -102q0 -130 -65 -164 l2 -6l17 1q17 0 46 0.5t66.5 1t87 1t98.5 0.5h322z" />
<glyph unicode="&#xa4;" horiz-adv-x="1331" d="M1243 1042l-143 -143q112 -144 112 -326q0 -174 -106 -319l143 -145l-112 -115l-146 145q-144 -112 -327 -112t-324 110l-145 -143l-115 115l145 145q-106 145 -106 319q0 182 112 326l-143 143l113 115l145 -143q139 104 318 104t321 -104l143 143zM666 918 q-143 0 -243.5 -100t-100.5 -245q0 -149 100 -246.5t244 -97.5q146 0 244 97t98 247q0 146 -98.5 245.5t-243.5 99.5z" />
<glyph unicode="&#xa5;" horiz-adv-x="1050" d="M811 782h133v-161h-219l-51 -97h270v-162h-313v-362h-215v362h-307v162h266l-51 97h-215v161h129l-197 365h238l170 -348q8 -17 18 -37.5t19.5 -39t18 -34t13.5 -26.5l6 -11h6q0 1 6 11t14 26t18 34.5t20 39t18 37.5l172 348h232z" />
<glyph unicode="&#xa6;" horiz-adv-x="428" d="M305 1004h-182v583h182v-583zM305 -152h-182v584h182v-584z" />
<glyph unicode="&#xa7;" horiz-adv-x="1368" d="M1024 520q168 -74 168 -241q0 -154 -125.5 -230t-353.5 -76q-78 0 -147 8t-138.5 28.5t-121.5 52t-89.5 82.5t-48.5 116l211 57q9 -90 91.5 -136t223.5 -46q267 0 267 154q0 74 -69 102t-276 63q-49 8 -75 13q-57 10 -101.5 21.5t-95.5 33t-85 49t-56.5 70.5t-22.5 96 q0 161 178 228q-77 34 -117 87t-40 136q0 97 62 160t158.5 88.5t227.5 25.5q99 0 181.5 -16t150.5 -49t115 -88t67 -129l-186 -52q-59 181 -326 181q-63 0 -111 -10t-81 -37t-33 -70q0 -25 7.5 -44t29.5 -34t40 -24t61 -19t70 -14.5l87 -14.5q40 -6 61 -10q82 -14 138.5 -27 t113 -35t90 -50.5t54 -71t20.5 -98.5q0 -168 -174 -230zM387 766q0 -33 18.5 -58t47.5 -41.5t75 -30t91 -22t106 -18.5q33 -5 49 -8l68 -13q69 15 108 51.5t39 90.5q0 21 -6 39t-14 31.5t-25.5 26t-31 20.5t-40.5 16.5t-43 13t-50.5 11t-51.5 9t-56 8.5q-30 5 -46 7l-62 10 q-76 -14 -126 -49t-50 -94z" />
<glyph unicode="&#xa8;" horiz-adv-x="1128" d="M360 1579q-47 0 -79.5 33.5t-32.5 81.5q0 46 33.5 79t80.5 33q46 0 78.5 -33t32.5 -79q0 -47 -33 -81t-80 -34zM764 1579q-47 0 -80 34t-33 81q0 46 33 79t80 33t81 -33t34 -79q0 -47 -34 -81t-81 -34z" />
<glyph unicode="&#xa9;" horiz-adv-x="1632" d="M815 1288q204 0 374 -93t271 -264.5t101 -387.5q0 -161 -59 -301.5t-160 -237t-238 -152t-289 -55.5q-153 0 -289.5 55.5t-236.5 152t-158.5 236.5t-58.5 302t58.5 302t158.5 236.5t236.5 151.5t289.5 55zM815 1169q-178 0 -319 -77.5t-221 -220.5t-80 -326 q0 -184 80 -328t221 -222.5t319 -78.5q177 0 318.5 78.5t223 222.5t81.5 328t-81.5 327t-223 220t-318.5 77zM1024 410l141 -48q-46 -95 -141 -152.5t-219 -57.5q-174 0 -284.5 109t-110.5 280q0 173 112.5 283t286.5 110q125 0 219.5 -60t132.5 -167l-141 -39 q-7 17 -19.5 34.5t-35.5 39.5t-62 35.5t-88 13.5q-113 0 -182.5 -67.5t-69.5 -180.5q0 -112 68.5 -179t179.5 -67q146 0 213 113z" />
<glyph unicode="&#xaa;" horiz-adv-x="835" d="M213 481h-139l258 666h174l256 -666h-144l-53 144h-299zM307 733h217l-45 119q-16 40 -31 83t-22 63t-8 20h-4q-1 0 -8 -20t-22.5 -63t-31.5 -83zM764 346v-143h-692v143h692z" />
<glyph unicode="&#xab;" horiz-adv-x="1386" d="M606 1053l123 -125l-362 -353v-6l364 -350l-127 -127l-481 481zM1139 1053l123 -125l-363 -353v-6l365 -350l-127 -127l-482 481z" />
<glyph unicode="&#xad;" horiz-adv-x="1183" d="M989 492h-796v188h796v-188z" />
<glyph unicode="&#xae;" horiz-adv-x="1632" d="M815 1288q204 0 374 -93t271 -264.5t101 -387.5q0 -161 -59 -301.5t-160 -237t-238 -152t-289 -55.5q-153 0 -289.5 55.5t-236.5 152t-158.5 236.5t-58.5 302t58.5 302t158.5 236.5t236.5 151.5t289.5 55zM815 1169q-178 0 -319 -77.5t-221 -220.5t-80 -326 q0 -184 80 -328t221 -222.5t319 -78.5q177 0 318.5 78.5t223 222.5t81.5 328t-81.5 327t-223 220t-318.5 77zM977 168l-160 287q-23 -2 -67 -2h-60v-285h-155v756h280q147 0 229 -64.5t82 -177.5q0 -80 -42 -130.5t-113 -70.5l178 -313h-172zM690 571h133q70 0 107 28t37 79 q0 108 -144 108h-133v-215z" />
<glyph unicode="&#xaf;" horiz-adv-x="1128" d="M877 1575h-625v188h625v-188z" />
<glyph unicode="&#xb0;" horiz-adv-x="561" d="M281 1192q-110 0 -180 67.5t-70 176.5q0 108 70.5 175.5t179.5 67.5q111 0 181 -67.5t70 -175.5q0 -110 -70 -177t-181 -67zM281 1323q51 0 82.5 31t31.5 82t-31.5 81.5t-82.5 30.5t-82 -30.5t-31 -81.5t31 -82t82 -31z" />
<glyph unicode="&#xb1;" horiz-adv-x="1368" d="M1081 831v-186h-297v-303h-200v303h-299v186h299v314h200v-314h297zM285 188h796v-186h-796v186z" />
<glyph unicode="&#xb2;" horiz-adv-x="696" d="M63 969v172l314 221q106 72 106 160q0 56 -36.5 89.5t-104.5 33.5q-64 0 -100.5 -28t-51.5 -91l-127 35q52 221 295 221q129 0 202 -64.5t73 -181.5q0 -134 -135 -242q-42 -33 -105.5 -79t-107 -76.5t-45.5 -32.5l4 -8q60 6 135 6h262v-135h-578z" />
<glyph unicode="&#xb3;" horiz-adv-x="696" d="M483 1382v-8q69 -8 116.5 -58.5t47.5 -131.5q0 -100 -79 -166t-199 -66q-137 0 -219.5 67.5t-98.5 172.5l135 39q5 -68 49.5 -108t118.5 -40q70 0 109 35.5t39 89.5q0 53 -41.5 86t-110.5 33h-61v103h55q68 0 109 32t41 84q0 45 -36 77t-112 32q-70 0 -104.5 -31 t-46.5 -98l-125 33q37 223 288 223q135 0 206 -59.5t71 -153.5q0 -77 -44 -129t-108 -58z" />
<glyph unicode="&#xb4;" horiz-adv-x="1128" d="M569 1544h-204l217 344l182 -59z" />
<glyph unicode="&#xb6;" horiz-adv-x="1263" d="M895 -287v1223h-168v-1223h-225v690q-213 0 -321.5 99t-108.5 278q0 174 108.5 270.5t321.5 96.5h618v-1434h-225z" />
<glyph unicode="&#xb7;" d="M250 455q-64 0 -98.5 34.5t-34.5 88.5q0 53 35 86.5t98 33.5q62 0 96.5 -33.5t34.5 -86.5q0 -54 -34.5 -88.5t-96.5 -34.5z" />
<glyph unicode="&#xb8;" horiz-adv-x="1128" d="M803 -170q0 -89 -68.5 -137.5t-202.5 -48.5q-117 0 -178 28v146q52 -25 146 -25q141 0 141 68q0 41 -56.5 59.5t-181.5 20.5v133h158v-58q242 -14 242 -186z" />
<glyph unicode="&#xb9;" horiz-adv-x="696" d="M629 969h-500v135h174v315q0 32 3.5 94t6.5 74h-8q-1 0 -8 -8.5t-20 -23t-25 -25.5l-74 -74l-96 92l227 217h146v-661h174v-135z" />
<glyph unicode="&#xba;" horiz-adv-x="849" d="M72 815q0 153 102 253.5t250 100.5t251 -100.5t103 -253.5q0 -151 -103 -251.5t-251 -100.5t-250 100.5t-102 251.5zM211 815q0 -95 59.5 -157t153.5 -62q95 0 154 62t59 157q0 96 -58.5 158.5t-154.5 62.5q-94 0 -153.5 -62.5t-59.5 -158.5zM760 201h-668v143h668v-143z " />
<glyph unicode="&#xbb;" horiz-adv-x="1386" d="M250 92l-127 127l364 350v6l-362 353l123 125l483 -480zM782 92l-127 127l365 350v6l-363 353l123 125l484 -480z" />
<glyph unicode="&#xbc;" horiz-adv-x="1697" d="M629 637h-500v135h174v315q0 32 3.5 94t6.5 74h-8q-1 0 -8 -8.5t-20 -23t-25 -25.5l-74 -74l-96 93l227 217h146v-662h174v-135zM1145 1434l-430 -1434h-162l428 1434h164zM1546 2h-145v188h-371v132l303 475h213v-473h123v-134h-123v-188zM1401 324v178q0 39 1.5 78.5 t3 63.5t1.5 26h-8q-1 0 -55 -83t-110 -170l-56 -87l6 -6h98h119z" />
<glyph unicode="&#xbd;" horiz-adv-x="1697" d="M629 637h-500v135h174v315q0 32 3.5 94t6.5 74h-8q-1 0 -8 -8.5t-20 -23t-25 -25.5l-74 -74l-96 93l227 217h146v-662h174v-135zM1145 1434l-430 -1434h-162l428 1434h164zM1065 2v170l311 221q109 72 109 162q0 56 -36.5 88.5t-105.5 32.5q-65 0 -100.5 -27t-50.5 -92 l-127 35q51 221 293 221q130 0 203 -64.5t73 -181.5q0 -134 -135 -239q-41 -33 -105.5 -80t-107.5 -78t-45 -33l2 -8q60 6 137 6h262v-133h-577z" />
<glyph unicode="&#xbe;" horiz-adv-x="1697" d="M483 1051v-9q69 -8 116.5 -58.5t47.5 -131.5q0 -100 -79 -165.5t-199 -65.5q-137 0 -219.5 67t-98.5 172l135 39q5 -68 49.5 -107.5t118.5 -39.5q70 0 109 35.5t39 89.5q0 53 -41.5 85.5t-110.5 32.5h-61v103h55q68 0 109 32t41 84q0 45 -36 77t-112 32q-70 0 -104.5 -31 t-46.5 -98l-125 33q37 223 288 223q135 0 206 -59.5t71 -153.5q0 -77 -44 -128.5t-108 -57.5zM1145 1434l-430 -1434h-162l428 1434h164zM1546 2h-145v188h-371v132l303 475h213v-473h123v-134h-123v-188zM1401 324v178q0 39 1.5 78.5t3 63.5t1.5 26h-8q-1 0 -55 -83 t-110 -170l-56 -87l6 -6h98h119z" />
<glyph unicode="&#xbf;" horiz-adv-x="1163" d="M600 1452q64 0 98.5 -35t34.5 -88t-34.5 -87t-98.5 -34q-62 0 -96.5 34t-34.5 87q0 55 34.5 89t96.5 34zM713 1077v-358q-233 -80 -322.5 -150t-89.5 -163q0 -41 13 -77.5t42 -70t83.5 -53t129.5 -19.5q132 0 204 56.5t106 165.5l213 -58q-46 -179 -185.5 -279 t-347.5 -100q-96 0 -176.5 22t-137 60t-96 89.5t-58.5 110.5t-19 124q0 73 24.5 137t62.5 109.5t94.5 85t110.5 65.5t121 51v252h228z" />
<glyph unicode="&#xc0;" horiz-adv-x="1515" d="M670 1544l-193 285l180 59l217 -344h-204zM1100 334h-686l-135 -334h-238l592 1434h252l590 -1434h-242zM1018 539l-139 346q-117 291 -119 293h-6q-6 -6 -121 -293l-137 -346h522z" />
<glyph unicode="&#xc1;" horiz-adv-x="1515" d="M838 1544h-207l219 344l180 -59zM1100 334h-686l-135 -334h-238l592 1434h252l590 -1434h-242zM1018 539l-139 346q-117 291 -119 293h-6q-6 -6 -121 -293l-137 -346h522z" />
<glyph unicode="&#xc2;" horiz-adv-x="1515" d="M537 1536l-103 123l318 250l317 -252l-102 -121l-215 172zM1100 334h-686l-135 -334h-238l592 1434h252l590 -1434h-242zM1018 539l-139 346q-117 291 -119 293h-6q-6 -6 -121 -293l-137 -346h522z" />
<glyph unicode="&#xc3;" horiz-adv-x="1515" d="M602 1651q-52 0 -93.5 -17.5t-64.5 -40.5l-38 162q20 25 64.5 47.5t111.5 22.5q61 0 158 -33t161 -33q88 0 154 53l39 -163q-17 -22 -64 -44t-112 -22q-61 0 -158.5 34t-157.5 34zM1100 334h-686l-135 -334h-238l592 1434h252l590 -1434h-242zM1018 539l-139 346 q-117 291 -119 293h-6q-6 -6 -121 -293l-137 -346h522z" />
<glyph unicode="&#xc4;" horiz-adv-x="1515" d="M555 1579q-47 0 -80 34t-33 81q0 46 34 79t81 33q46 0 78.5 -33t32.5 -79q0 -47 -33 -81t-80 -34zM958 1579q-47 0 -79.5 33.5t-32.5 81.5q0 46 32.5 79t79.5 33t81 -33t34 -79q0 -47 -34 -81t-81 -34zM1100 334h-686l-135 -334h-238l592 1434h252l590 -1434h-242z M1018 539l-139 346q-117 291 -119 293h-6q-6 -6 -121 -293l-137 -346h522z" />
<glyph unicode="&#xc5;" horiz-adv-x="1515" d="M758 1507q-106 0 -171 57t-65 154t65.5 155t170.5 58q104 0 168.5 -58t64.5 -155t-64.5 -154t-168.5 -57zM758 1804q-42 0 -67 -23.5t-25 -62.5q0 -38 25.5 -62t66.5 -24t66.5 24t25.5 62q0 39 -25 62.5t-67 23.5zM1100 334h-686l-135 -334h-238l592 1434h252l590 -1434 h-242zM1018 539l-139 346q-117 291 -119 293h-6q-6 -6 -121 -293l-137 -346h522z" />
<glyph unicode="&#xc6;" horiz-adv-x="2033" d="M1935 201v-201h-991v342h-526l-137 -342h-240l592 1434h1296v-201h-764v-393h596v-193h-596v-446h770zM944 535v698h-166l-282 -698h448z" />
<glyph unicode="&#xc7;" horiz-adv-x="1560" d="M1264 469l221 -59q-67 -166 -202 -275t-312 -145q108 -47 108 -160q0 -89 -68 -137.5t-204 -48.5q-115 0 -176 28v146q52 -25 145 -25q142 0 142 68q0 41 -56.5 59.5t-183.5 20.5v43q-269 42 -437.5 241.5t-168.5 495.5q0 218 96 387.5t264 261.5t379 92 q237 0 409.5 -112.5t247.5 -286.5l-223 -59q-25 43 -60 82t-88 78t-129 62t-165 23q-226 0 -365 -144.5t-139 -385.5q0 -242 141 -387.5t359 -145.5q160 0 281.5 76.5t183.5 206.5z" />
<glyph unicode="&#xc8;" horiz-adv-x="1236" d="M545 1888l217 -344h-205l-192 285zM143 0v1434h992v-211h-766v-375h587v-211h-587v-426h772v-211h-998z" />
<glyph unicode="&#xc9;" horiz-adv-x="1236" d="M723 1544h-205l219 344l181 -59zM143 0v1434h992v-211h-766v-375h587v-211h-587v-426h772v-211h-998z" />
<glyph unicode="&#xca;" horiz-adv-x="1236" d="M954 1657l-100 -121l-215 172l-217 -172l-100 123l317 250zM143 0v1434h992v-211h-766v-375h587v-211h-587v-426h772v-211h-998z" />
<glyph unicode="&#xcb;" horiz-adv-x="1236" d="M442 1579q-47 0 -79.5 33.5t-32.5 81.5q0 46 33.5 79t80.5 33q46 0 78.5 -33t32.5 -79q0 -47 -33.5 -81t-79.5 -34zM846 1579q-47 0 -80 34t-33 81q0 46 33 79t80 33t79.5 -33t32.5 -79q0 -48 -32.5 -81.5t-79.5 -33.5zM143 0v1434h992v-211h-766v-375h587v-211h-587 v-426h772v-211h-998z" />
<glyph unicode="&#xcc;" horiz-adv-x="512" d="M158 1888l217 -344h-205l-195 285zM143 0v1434h226v-1434h-226z" />
<glyph unicode="&#xcd;" horiz-adv-x="512" d="M336 1544h-205l219 344l180 -59zM143 0v1434h226v-1434h-226z" />
<glyph unicode="&#xce;" horiz-adv-x="512" d="M510 1665l-109 -117l-145 144l-145 -144l-107 117l252 244zM143 0v1434h226v-1434h-226z" />
<glyph unicode="&#xcf;" horiz-adv-x="512" d="M115 1579q-46 0 -78.5 34t-32.5 81q0 46 33 79t82 33q46 0 78 -33t32 -79q0 -47 -33.5 -81t-80.5 -34zM397 1579q-47 0 -79.5 33.5t-32.5 81.5q0 46 32.5 79t79.5 33t80 -33t33 -79q0 -47 -33 -81t-80 -34zM143 0v1434h226v-1434h-226z" />
<glyph unicode="&#xd0;" horiz-adv-x="1507" d="M143 1434h535q218 0 390 -88.5t270 -254t98 -380.5t-98.5 -378t-268 -248t-383.5 -85h-543v641h-120v201h120v592zM369 211h305q109 0 204 30.5t169.5 90t117.5 157t43 222.5t-43 224t-117.5 161t-172 94.5t-209.5 32.5h-297v-381h340v-201h-340v-430z" />
<glyph unicode="&#xd1;" horiz-adv-x="1505" d="M1055 1812l39 -163q-18 -22 -64 -44t-110 -22q-62 0 -160 34t-158 34q-98 0 -156 -58l-40 162q19 25 65 47.5t113 22.5q60 0 156.5 -33t160.5 -33q93 0 154 53zM1133 0l-764 1063h-4v-11q0 -10 0.5 -28.5t1 -43t1 -56t1 -65t0.5 -72.5v-76v-711h-226v1434h230l762 -1049 h6v11q0 10 -0.5 28.5t-1 42.5t-1 54.5t-1 62t-0.5 68v69.5v713h225v-1434h-229z" />
<glyph unicode="&#xd2;" horiz-adv-x="1636" d="M721 1888l217 -344h-205l-192 285zM72 717q0 164 57 303.5t156 236t236.5 151t295.5 54.5t296.5 -54.5t238.5 -151t157.5 -236.5t57.5 -303q0 -217 -98.5 -387.5t-269 -263.5t-382.5 -93q-211 0 -380.5 93t-267 263.5t-97.5 387.5zM299 717q0 -240 147 -385.5t371 -145.5 q226 0 374 145t148 386q0 242 -148 387t-374 145q-225 0 -371.5 -145.5t-146.5 -386.5z" />
<glyph unicode="&#xd3;" horiz-adv-x="1636" d="M899 1544h-205l219 344l181 -59zM72 717q0 164 57 303.5t156 236t236.5 151t295.5 54.5t296.5 -54.5t238.5 -151t157.5 -236.5t57.5 -303q0 -217 -98.5 -387.5t-269 -263.5t-382.5 -93q-211 0 -380.5 93t-267 263.5t-97.5 387.5zM299 717q0 -240 147 -385.5t371 -145.5 q226 0 374 145t148 386q0 242 -148 387t-374 145q-225 0 -371.5 -145.5t-146.5 -386.5z" />
<glyph unicode="&#xd4;" horiz-adv-x="1636" d="M1130 1657l-100 -121l-215 172l-217 -172l-100 123l317 250zM72 717q0 164 57 303.5t156 236t236.5 151t295.5 54.5t296.5 -54.5t238.5 -151t157.5 -236.5t57.5 -303q0 -217 -98.5 -387.5t-269 -263.5t-382.5 -93q-211 0 -380.5 93t-267 263.5t-97.5 387.5zM299 717 q0 -240 147 -385.5t371 -145.5q226 0 374 145t148 386q0 242 -148 387t-374 145q-225 0 -371.5 -145.5t-146.5 -386.5z" />
<glyph unicode="&#xd5;" horiz-adv-x="1636" d="M1118 1812l39 -163q-17 -22 -64 -44t-112 -22q-61 0 -158.5 34t-156.5 34q-100 0 -158 -58l-39 162q20 25 64.5 47.5t111.5 22.5q59 0 157 -33t163 -33q87 0 153 53zM72 717q0 164 57 303.5t156 236t236.5 151t295.5 54.5t296.5 -54.5t238.5 -151t157.5 -236.5t57.5 -303 q0 -217 -98.5 -387.5t-269 -263.5t-382.5 -93q-211 0 -380.5 93t-267 263.5t-97.5 387.5zM299 717q0 -240 147 -385.5t371 -145.5q226 0 374 145t148 386q0 242 -148 387t-374 145q-225 0 -371.5 -145.5t-146.5 -386.5z" />
<glyph unicode="&#xd6;" horiz-adv-x="1636" d="M618 1579q-47 0 -79.5 33.5t-32.5 81.5q0 46 34 79t81 33q46 0 78 -33t32 -79q0 -47 -33.5 -81t-79.5 -34zM1022 1579q-47 0 -80 34t-33 81q0 46 33 79t80 33t80 -33t33 -79q0 -47 -33 -81t-80 -34zM72 717q0 164 57 303.5t156 236t236.5 151t295.5 54.5t296.5 -54.5 t238.5 -151t157.5 -236.5t57.5 -303q0 -217 -98.5 -387.5t-269 -263.5t-382.5 -93q-211 0 -380.5 93t-267 263.5t-97.5 387.5zM299 717q0 -240 147 -385.5t371 -145.5q226 0 374 145t148 386q0 242 -148 387t-374 145q-225 0 -371.5 -145.5t-146.5 -386.5z" />
<glyph unicode="&#xd7;" horiz-adv-x="1368" d="M821 588l246 -246l-137 -137l-246 246l-246 -246l-135 137l246 246l-248 246l137 135l246 -244l246 244l137 -135z" />
<glyph unicode="&#xd8;" horiz-adv-x="1636" d="M1518 1452l-158 -205q99 -100 153 -235t54 -295q0 -217 -98.5 -387.5t-269 -263.5t-382.5 -93q-198 0 -364 86l-160 -206l-172 129l158 204q-99 100 -153 235.5t-54 295.5q0 164 57 303.5t156 236t236.5 151t295.5 54.5q203 0 371 -88l158 207zM299 717q0 -211 117 -350 l637 833q-111 49 -236 49q-225 0 -371.5 -145.5t-146.5 -386.5zM817 186q226 0 374 145t148 386q0 212 -116 350l-637 -831q106 -50 231 -50z" />
<glyph unicode="&#xd9;" horiz-adv-x="1435" d="M623 1888l219 -344h-205l-195 285zM1307 1434v-822q0 -309 -154.5 -474t-435.5 -165t-435.5 165t-154.5 474v822h229v-820q0 -217 89.5 -322.5t273.5 -105.5q186 0 275 105.5t89 322.5v820h224z" />
<glyph unicode="&#xda;" horiz-adv-x="1435" d="M803 1544h-205l217 344l182 -59zM1307 1434v-822q0 -309 -154.5 -474t-435.5 -165t-435.5 165t-154.5 474v822h229v-820q0 -217 89.5 -322.5t273.5 -105.5q186 0 275 105.5t89 322.5v820h224z" />
<glyph unicode="&#xdb;" horiz-adv-x="1435" d="M1034 1657l-100 -121l-215 172l-217 -172l-101 123l318 250zM1307 1434v-822q0 -309 -154.5 -474t-435.5 -165t-435.5 165t-154.5 474v822h229v-820q0 -217 89.5 -322.5t273.5 -105.5q186 0 275 105.5t89 322.5v820h224z" />
<glyph unicode="&#xdc;" horiz-adv-x="1435" d="M520 1579q-46 0 -78 34t-32 81q0 46 32.5 79t81.5 33q46 0 78.5 -33t32.5 -79q0 -47 -34 -81t-81 -34zM926 1579q-47 0 -81 34t-34 81q0 46 34 79t81 33q46 0 79 -33t33 -79q0 -47 -33 -81t-79 -34zM1307 1434v-822q0 -309 -154.5 -474t-435.5 -165t-435.5 165 t-154.5 474v822h229v-820q0 -217 89.5 -322.5t273.5 -105.5q186 0 275 105.5t89 322.5v820h224z" />
<glyph unicode="&#xdd;" horiz-adv-x="1384" d="M793 1544h-205l219 344l180 -59zM805 604v-604h-227v604l-547 830l262 2l287 -447q29 -43 58 -88.5t43 -68t15 -23.5h4q1 1 15 23.5t42.5 67t57.5 87.5l295 447h244z" />
<glyph unicode="&#xde;" horiz-adv-x="1181" d="M369 1159h225q254 0 395 -117t141 -329q0 -207 -141 -320.5t-395 -113.5h-225v-279h-226v1434h226v-275zM369 481h235q147 0 224 60t77 174q0 113 -76.5 173t-224.5 60h-235v-467z" />
<glyph unicode="&#xdf;" horiz-adv-x="1210" d="M793 709h10q151 0 251.5 -100t100.5 -263q0 -162 -102.5 -267.5t-280.5 -105.5q-93 0 -166 27t-114 68l90 151q75 -67 170 -67q90 0 144 54t54 134t-57 132t-154 52h-172v181l133 237l-2 4h-80h-260v-946h-215v1147h895l-247 -434z" />
<glyph unicode="&#xe0;" horiz-adv-x="1239" d="M535 1257l-193 285l180 60l219 -345h-206zM874 270h-514l-100 -270h-219l448 1147h261l448 -1147h-223zM807 457l-82 219q-32 86 -58 159.5t-35.5 102t-10.5 29.5h-7l-110 -303l-76 -207h379z" />
<glyph unicode="&#xe1;" horiz-adv-x="1239" d="M702 1257h-206l219 345l180 -60zM874 270h-514l-100 -270h-219l448 1147h261l448 -1147h-223zM807 457l-82 219q-32 86 -58 159.5t-35.5 102t-10.5 29.5h-7l-110 -303l-76 -207h379z" />
<glyph unicode="&#xe2;" horiz-adv-x="1239" d="M477 1262l-108 116l254 244l251 -244l-106 -116l-145 143zM874 270h-514l-100 -270h-219l448 1147h261l448 -1147h-223zM807 457l-82 219q-32 86 -58 159.5t-35.5 102t-10.5 29.5h-7l-110 -303l-76 -207h379z" />
<glyph unicode="&#xe3;" horiz-adv-x="1239" d="M481 1364q-85 0 -137 -57l-41 163q16 23 59 45.5t99 22.5q55 0 142.5 -32.5t144.5 -32.5q77 0 135 53l41 -166q-14 -20 -58.5 -42t-97.5 -22q-57 0 -146 34t-141 34zM874 270h-514l-100 -270h-219l448 1147h261l448 -1147h-223zM807 457l-82 219q-32 86 -58 159.5 t-35.5 102t-10.5 29.5h-7l-110 -303l-76 -207h379z" />
<glyph unicode="&#xe4;" horiz-adv-x="1239" d="M420 1292q-47 0 -80 34t-33 81q0 46 34 79.5t81 33.5q45 0 77.5 -33.5t32.5 -79.5q0 -48 -32.5 -81.5t-79.5 -33.5zM823 1292q-47 0 -79.5 33.5t-32.5 81.5q0 46 32.5 79.5t79.5 33.5t81 -33.5t34 -79.5q0 -47 -34 -81t-81 -34zM874 270h-514l-100 -270h-219l448 1147 h261l448 -1147h-223zM807 457l-82 219q-32 86 -58 159.5t-35.5 102t-10.5 29.5h-7l-110 -303l-76 -207h379z" />
<glyph unicode="&#xe5;" horiz-adv-x="1239" d="M623 1221q-106 0 -171 57t-65 154t65.5 155t170.5 58q104 0 168.5 -58t64.5 -155t-64.5 -154t-168.5 -57zM623 1518q-42 0 -67.5 -23.5t-25.5 -62.5q0 -38 26 -62t67 -24t66.5 24t25.5 62q0 39 -25 62.5t-67 23.5zM874 270h-514l-100 -270h-219l448 1147h261l448 -1147 h-223zM807 457l-82 219q-32 86 -58 159.5t-35.5 102t-10.5 29.5h-7l-110 -303l-76 -207h379z" />
<glyph unicode="&#xe6;" horiz-adv-x="1685" d="M1589 201v-201h-837v260h-396l-96 -260h-219l453 1147h1085v-201h-623v-262h469v-190h-469v-293h633zM752 444v510h-140l-188 -510h328z" />
<glyph unicode="&#xe7;" horiz-adv-x="1308" d="M1026 367l205 -56q-58 -122 -162.5 -206t-241.5 -113q121 -44 121 -164q0 -89 -68 -137.5t-204 -48.5q-115 0 -176 28v146q52 -25 145 -25q141 0 141 68q0 41 -57 59.5t-182 20.5v51q-213 41 -344 200t-131 381q0 170 78 306.5t218 214t314 77.5q185 0 330.5 -87.5 t214.5 -250.5l-205 -55q-14 21 -17.5 26.5t-24.5 32t-36 39.5t-45 35.5t-59 33.5t-70 20.5t-86 9.5q-175 0 -285 -111.5t-110 -288.5q0 -178 110.5 -288.5t282.5 -110.5q119 0 207 53.5t137 139.5z" />
<glyph unicode="&#xe8;" horiz-adv-x="1087" d="M465 1602l219 -345h-205l-194 285zM143 0v1147h838v-201h-623v-262h469v-190h-469v-293h633v-201h-848z" />
<glyph unicode="&#xe9;" horiz-adv-x="1087" d="M645 1257h-205l217 345l183 -60zM143 0v1147h838v-201h-623v-262h469v-190h-469v-293h633v-201h-848z" />
<glyph unicode="&#xea;" horiz-adv-x="1087" d="M877 1370l-101 -121l-215 172l-217 -172l-100 123l317 250zM143 0v1147h838v-201h-623v-262h469v-190h-469v-293h633v-201h-848z" />
<glyph unicode="&#xeb;" horiz-adv-x="1087" d="M362 1292q-46 0 -78 34t-32 81q0 46 33 79.5t80 33.5t79.5 -33.5t32.5 -79.5q0 -47 -34 -81t-81 -34zM768 1292q-49 0 -82 33.5t-33 81.5q0 46 33 79.5t82 33.5q46 0 79.5 -33.5t33.5 -79.5q0 -47 -33.5 -81t-79.5 -34zM143 0v1147h838v-201h-623v-262h469v-190h-469 v-293h633v-201h-848z" />
<glyph unicode="&#xec;" d="M152 1602l219 -345h-205l-195 285zM143 0v1147h215v-1147h-215z" />
<glyph unicode="&#xed;" d="M332 1257h-205l219 345l180 -60zM143 0v1147h215v-1147h-215z" />
<glyph unicode="&#xee;" d="M504 1378l-107 -116l-145 143l-146 -143l-106 116l252 244zM143 0v1147h215v-1147h-215z" />
<glyph unicode="&#xef;" d="M111 1292q-46 0 -78.5 34t-32.5 81q0 46 33 79.5t80 33.5t79.5 -33.5t32.5 -79.5q0 -47 -33.5 -81t-80.5 -34zM393 1292q-47 0 -79.5 33.5t-32.5 81.5q0 46 32.5 79.5t79.5 33.5t80 -33.5t33 -79.5q0 -47 -33 -81t-80 -34zM143 0v1147h215v-1147h-215z" />
<glyph unicode="&#xf0;" horiz-adv-x="1271" d="M143 1147h420q185 0 328.5 -68.5t226 -201t82.5 -308.5q0 -177 -82.5 -307t-224.5 -196t-324 -66h-426v489h-120v191h120v467zM358 201h209q193 0 304.5 92t111.5 276q0 185 -112.5 281t-309.5 96h-203v-266h328v-191h-328v-288z" />
<glyph unicode="&#xf1;" horiz-adv-x="1308" d="M907 1526l41 -166q-17 -21 -59.5 -42.5t-95.5 -21.5q-57 0 -146 34t-141 34q-85 0 -137 -57l-41 163q16 23 58.5 45.5t98.5 22.5q55 0 142.5 -32.5t144.5 -32.5q82 0 135 53zM1165 0h-221l-584 817h-6v-7q0 -8 0.5 -21.5t1 -32t1 -41.5t1 -47.5t0.5 -53.5v-57v-557h-215 v1147h222l583 -801h4v7q0 7 -0.5 19.5t-0.5 29v37.5t-0.5 43.5t-0.5 48.5v51v565h215v-1147z" />
<glyph unicode="&#xf2;" horiz-adv-x="1357" d="M580 1602l219 -345h-205l-195 285zM72 573q0 170 79 307t217.5 213t309.5 76q172 0 311.5 -76t219 -213t79.5 -307q0 -171 -79.5 -307.5t-219 -212.5t-311.5 -76q-171 0 -309.5 76t-217.5 212.5t-79 307.5zM289 573q0 -177 109.5 -288t279.5 -111t280.5 111t110.5 288 t-110.5 288.5t-280.5 111.5t-279.5 -111.5t-109.5 -288.5z" />
<glyph unicode="&#xf3;" horiz-adv-x="1357" d="M760 1257h-205l217 345l180 -60zM72 573q0 170 79 307t217.5 213t309.5 76q172 0 311.5 -76t219 -213t79.5 -307q0 -171 -79.5 -307.5t-219 -212.5t-311.5 -76q-171 0 -309.5 76t-217.5 212.5t-79 307.5zM289 573q0 -177 109.5 -288t279.5 -111t280.5 111t110.5 288 t-110.5 288.5t-280.5 111.5t-279.5 -111.5t-109.5 -288.5z" />
<glyph unicode="&#xf4;" horiz-adv-x="1357" d="M991 1370l-102 -121l-215 172l-215 -172l-101 123l316 250zM72 573q0 170 79 307t217.5 213t309.5 76q172 0 311.5 -76t219 -213t79.5 -307q0 -171 -79.5 -307.5t-219 -212.5t-311.5 -76q-171 0 -309.5 76t-217.5 212.5t-79 307.5zM289 573q0 -177 109.5 -288t279.5 -111 t280.5 111t110.5 288t-110.5 288.5t-280.5 111.5t-279.5 -111.5t-109.5 -288.5z" />
<glyph unicode="&#xf5;" horiz-adv-x="1357" d="M942 1526l39 -166q-14 -20 -57.5 -42t-98.5 -22q-56 0 -144 34t-142 34q-45 0 -81 -17t-57 -40l-39 163q16 23 58.5 45.5t97.5 22.5t143 -32.5t146 -32.5q82 0 135 53zM72 573q0 170 79 307t217.5 213t309.5 76q172 0 311.5 -76t219 -213t79.5 -307q0 -171 -79.5 -307.5 t-219 -212.5t-311.5 -76q-171 0 -309.5 76t-217.5 212.5t-79 307.5zM289 573q0 -177 109.5 -288t279.5 -111t280.5 111t110.5 288t-110.5 288.5t-280.5 111.5t-279.5 -111.5t-109.5 -288.5z" />
<glyph unicode="&#xf6;" horiz-adv-x="1357" d="M477 1292q-46 0 -78 34t-32 81q0 46 32.5 79.5t79.5 33.5t80 -33.5t33 -79.5q0 -47 -34 -81t-81 -34zM883 1292q-49 0 -82 33.5t-33 81.5q0 46 33 79.5t82 33.5q46 0 79 -33.5t33 -79.5q0 -47 -33 -81t-79 -34zM72 573q0 170 79 307t217.5 213t309.5 76q172 0 311.5 -76 t219 -213t79.5 -307q0 -171 -79.5 -307.5t-219 -212.5t-311.5 -76q-171 0 -309.5 76t-217.5 212.5t-79 307.5zM289 573q0 -177 109.5 -288t279.5 -111t280.5 111t110.5 288t-110.5 288.5t-280.5 111.5t-279.5 -111.5t-109.5 -288.5z" />
<glyph unicode="&#xf7;" horiz-adv-x="1368" d="M686 854q-64 0 -98.5 35t-34.5 88t34.5 87t98.5 34q62 0 96.5 -34t34.5 -87q0 -55 -34.5 -89t-96.5 -34zM1081 492h-796v188h796v-188zM686 76q-63 0 -98 35.5t-35 89.5q0 53 34.5 87t98.5 34q62 0 96.5 -34t34.5 -87q0 -55 -34.5 -90t-96.5 -35z" />
<glyph unicode="&#xf8;" horiz-adv-x="1357" d="M1241 1139l-117 -150q78 -79 121 -186.5t43 -229.5q0 -171 -79.5 -307.5t-219 -212.5t-311.5 -76q-160 0 -289 66l-115 -147l-159 120l112 146q-155 164 -155 411q0 170 79 307t217.5 213t309.5 76q156 0 285 -63l118 154zM289 573q0 -137 71 -241l476 610 q-73 31 -158 31q-170 0 -279.5 -111.5t-109.5 -288.5zM678 174q170 0 280.5 111t110.5 288q0 143 -76 248l-479 -614q70 -33 164 -33z" />
<glyph unicode="&#xf9;" horiz-adv-x="1267" d="M539 1602l219 -345h-205l-195 285zM1141 1147v-633q0 -269 -133 -403t-375 -134t-374 134t-132 403v633h219v-653q0 -163 71.5 -241.5t219.5 -78.5q147 0 219 79t72 241v653h213z" />
<glyph unicode="&#xfa;" horiz-adv-x="1267" d="M719 1257h-205l217 345l182 -60zM1141 1147v-633q0 -269 -133 -403t-375 -134t-374 134t-132 403v633h219v-653q0 -163 71.5 -241.5t219.5 -78.5q147 0 219 79t72 241v653h213z" />
<glyph unicode="&#xfb;" horiz-adv-x="1267" d="M950 1370l-100 -121l-215 172l-217 -172l-101 123l318 250zM1141 1147v-633q0 -269 -133 -403t-375 -134t-374 134t-132 403v633h219v-653q0 -163 71.5 -241.5t219.5 -78.5q147 0 219 79t72 241v653h213z" />
<glyph unicode="&#xfc;" horiz-adv-x="1267" d="M438 1292q-47 0 -79.5 33.5t-32.5 81.5q0 47 32.5 80t81.5 33q46 0 78.5 -33.5t32.5 -79.5q0 -47 -33.5 -81t-79.5 -34zM842 1292q-47 0 -81 34t-34 81q0 46 34 79.5t81 33.5q46 0 79 -33.5t33 -79.5q0 -47 -33 -81t-79 -34zM1141 1147v-633q0 -269 -133 -403t-375 -134 t-374 134t-132 403v633h219v-653q0 -163 71.5 -241.5t219.5 -78.5q147 0 219 79t72 241v653h213z" />
<glyph unicode="&#xfd;" horiz-adv-x="1142" d="M670 1257h-205l219 345l180 -60zM678 0h-215v446l-432 701h245l164 -264q33 -55 68.5 -115t53 -89t18.5 -30h4q1 1 18.5 30.5t53 89t71.5 116.5l160 262h225l-434 -701v-446z" />
<glyph unicode="&#xfe;" horiz-adv-x="1011" d="M358 920h146q219 0 338 -90t119 -259q0 -163 -118.5 -249t-338.5 -86h-146v-236h-215v1147h215v-227zM358 408h152q120 0 175.5 37.5t55.5 121.5q0 82 -56.5 121t-174.5 39h-152v-319z" />
<glyph unicode="&#xff;" horiz-adv-x="1142" d="M389 1292q-47 0 -80 34t-33 81q0 46 34 79.5t81 33.5q46 0 78.5 -33.5t32.5 -79.5q0 -47 -33.5 -81t-79.5 -34zM793 1292q-47 0 -80 34t-33 81q0 46 33 79.5t80 33.5t79.5 -33.5t32.5 -79.5q0 -48 -32.5 -81.5t-79.5 -33.5zM678 0h-215v446l-432 701h245l164 -264 q33 -55 68.5 -115t53 -89t18.5 -30h4q1 1 18.5 30.5t53 89t71.5 116.5l160 262h225l-434 -701v-446z" />
<glyph unicode="&#x152;" horiz-adv-x="2058" d="M1956 0h-969q-53 -8 -168 -8q-210 0 -379.5 89t-268.5 255.5t-99 380.5q0 161 58 297.5t158 230t238 145.5t295 52q113 0 166 -8h963v-211h-764v-371h596v-211h-596v-430h770v-211zM299 717q0 -242 143.5 -382t380.5 -140q80 0 142 20v1008q-59 16 -142 16 q-238 0 -381 -139.5t-143 -382.5z" />
<glyph unicode="&#x153;" horiz-adv-x="1736" d="M1634 0h-809q-47 -6 -143 -6q-175 0 -313.5 70.5t-217.5 203t-79 305.5t79 305.5t217.5 203.5t313.5 71q103 0 147 -6h795v-201h-623v-262h469v-190h-469v-293h633v-201zM289 573q0 -175 107 -281t288 -106q49 0 113 11v753q-64 11 -113 11q-181 0 -288 -106t-107 -282z " />
<glyph unicode="&#x178;" horiz-adv-x="1384" d="M512 1579q-47 0 -80 34t-33 81q0 46 34 79t81 33q46 0 78.5 -33t32.5 -79q0 -47 -33.5 -81t-79.5 -34zM915 1579q-47 0 -79.5 33.5t-32.5 81.5q0 46 32.5 79t79.5 33t80 -33t33 -79q0 -47 -33 -81t-80 -34zM805 604v-604h-227v604l-547 830l262 2l287 -447 q29 -43 58 -88.5t43 -68t15 -23.5h4q1 1 15 23.5t42.5 67t57.5 87.5l295 447h244z" />
<glyph unicode="&#x2c6;" horiz-adv-x="1128" d="M881 1657l-103 -121l-215 172l-215 -172l-102 123l317 250z" />
<glyph unicode="&#x2dc;" horiz-adv-x="1128" d="M831 1812l39 -165q-14 -20 -57.5 -42t-97.5 -22q-56 0 -144.5 34t-142.5 34q-82 0 -135 -58l-41 164q16 23 59 45.5t99 22.5q55 0 142 -33t144 -33q82 0 135 53z" />
<glyph unicode="&#x2000;" horiz-adv-x="965" />
<glyph unicode="&#x2001;" horiz-adv-x="1931" />
<glyph unicode="&#x2002;" horiz-adv-x="965" />
<glyph unicode="&#x2003;" horiz-adv-x="1931" />
<glyph unicode="&#x2004;" horiz-adv-x="643" />
<glyph unicode="&#x2005;" horiz-adv-x="482" />
<glyph unicode="&#x2006;" horiz-adv-x="321" />
<glyph unicode="&#x2007;" horiz-adv-x="321" />
<glyph unicode="&#x2008;" horiz-adv-x="241" />
<glyph unicode="&#x2009;" horiz-adv-x="386" />
<glyph unicode="&#x200a;" horiz-adv-x="107" />
<glyph unicode="&#x2010;" horiz-adv-x="1183" d="M989 492h-796v188h796v-188z" />
<glyph unicode="&#x2011;" horiz-adv-x="1183" d="M989 492h-796v188h796v-188z" />
<glyph unicode="&#x2012;" horiz-adv-x="1183" d="M989 492h-796v188h796v-188z" />
<glyph unicode="&#x2013;" horiz-adv-x="1368" d="M1174 492h-981v188h981v-188z" />
<glyph unicode="&#x2014;" horiz-adv-x="2021" d="M1827 492h-1634v188h1634v-188z" />
<glyph unicode="&#x2018;" d="M276 1235q44 5 72.5 -22t28.5 -74q0 -50 -34.5 -82.5t-92.5 -32.5q-64 0 -104 43t-40 115q0 83 55.5 162t149.5 110l86 -98q-43 -13 -77.5 -48.5t-43.5 -72.5z" />
<glyph unicode="&#x2019;" d="M223 1249q-45 -4 -72.5 22.5t-27.5 74.5t34.5 80t90.5 32q66 0 105.5 -42t39.5 -116q0 -83 -55.5 -162t-149.5 -110l-86 98q41 13 75.5 49t45.5 74z" />
<glyph unicode="&#x201a;" d="M223 6q-45 -4 -72.5 22t-27.5 74q0 50 34.5 82.5t90.5 32.5q66 0 105.5 -42t39.5 -116q0 -83 -55.5 -162t-149.5 -110l-86 98q41 13 75.5 48.5t45.5 72.5z" />
<glyph unicode="&#x201c;" horiz-adv-x="907" d="M272 1235q44 5 72.5 -22t28.5 -74q0 -50 -34.5 -82.5t-92.5 -32.5q-64 0 -104 43t-40 115q0 83 55.5 162t149.5 110l86 -98q-43 -13 -77.5 -48.5t-43.5 -72.5zM680 1235q44 5 72 -22t28 -74q0 -50 -34.5 -82.5t-92.5 -32.5q-64 0 -103.5 42.5t-39.5 115.5q0 83 55.5 162 t149.5 110l86 -98q-43 -13 -77.5 -48.5t-43.5 -72.5z" />
<glyph unicode="&#x201d;" horiz-adv-x="907" d="M631 1249q-45 -4 -73 22.5t-28 74.5t34.5 80t90.5 32q66 0 106 -42t40 -116q0 -83 -55.5 -162t-149.5 -110l-86 98q41 13 75.5 49t45.5 74zM223 1249q-45 -4 -72.5 22.5t-27.5 74.5t34.5 80t90.5 32q66 0 105.5 -42t39.5 -116q0 -83 -55.5 -162t-149.5 -110l-86 98 q41 13 75.5 49t45.5 74z" />
<glyph unicode="&#x201e;" horiz-adv-x="888" d="M612 6q-44 -5 -72 22t-28 74q0 50 34.5 82.5t90.5 32.5q66 0 105.5 -42t39.5 -116q0 -83 -55 -162t-149 -110l-86 98q43 13 77 48.5t43 72.5zM223 6q-45 -4 -72.5 22t-27.5 74q0 50 34.5 82.5t90.5 32.5q66 0 105.5 -42t39.5 -116q0 -83 -55.5 -162t-149.5 -110l-86 98 q41 13 75.5 48.5t45.5 72.5z" />
<glyph unicode="&#x2022;" horiz-adv-x="665" d="M334 401q-84 0 -137.5 51t-53.5 132q0 79 53.5 129.5t137.5 50.5q82 0 135 -50.5t53 -129.5q0 -81 -53 -132t-135 -51z" />
<glyph unicode="&#x2026;" horiz-adv-x="1476" d="M225 -23q-52 0 -80 29.5t-28 73.5q0 43 28.5 71.5t79.5 28.5q52 0 80.5 -28.5t28.5 -71.5q0 -45 -28.5 -74t-80.5 -29zM727 -23q-52 0 -80.5 29.5t-28.5 73.5q0 43 29 71.5t80 28.5q52 0 80.5 -28.5t28.5 -71.5q0 -45 -28.5 -74t-80.5 -29zM1251 -23q-53 0 -81.5 29.5 t-28.5 73.5q0 43 29 71.5t81 28.5q51 0 80 -28.5t29 -71.5q0 -44 -29 -73.5t-80 -29.5z" />
<glyph unicode="&#x202f;" horiz-adv-x="386" />
<glyph unicode="&#x2039;" horiz-adv-x="854" d="M606 1053l123 -125l-362 -353v-6l364 -350l-127 -127l-481 481z" />
<glyph unicode="&#x203a;" horiz-adv-x="854" d="M250 92l-127 127l364 350v6l-362 353l123 125l483 -480z" />
<glyph unicode="&#x205f;" horiz-adv-x="482" />
<glyph unicode="&#x20ac;" horiz-adv-x="1222" d="M934 336l211 -55q-21 -61 -58 -113t-93 -96t-138.5 -69.5t-181.5 -25.5q-197 0 -326.5 95.5t-175.5 289.5h-100v162h80l-2 64v33h-78v161h96q39 192 165.5 289.5t330.5 97.5q184 0 312 -81t165 -246l-209 -58q-54 193 -266 193q-208 0 -263 -195h297v-161h-319v-33 q0 -44 2 -64h317v-162h-290q61 -188 272 -188q187 0 252 162z" />
<glyph unicode="&#x2122;" horiz-adv-x="1628" d="M1487 768h-141v244l2 233h-2q-1 -1 -11 -20.5t-28.5 -56.5t-34.5 -66l-96 -184h-78l-97 184q-76 144 -79 147h-2l2 -237v-244h-138v666h168l127 -242q12 -23 28 -52t23.5 -43.5t8.5 -15.5h2q1 1 8 15t21 42.5t26 51.5l123 244h168v-666zM657 1434v-134h-221v-532h-143 v532h-221v134h585z" />
<glyph unicode="&#x25fc;" horiz-adv-x="1145" d="M0 1145h1145v-1145h-1145v1145z" />
</font>
</defs>
</svg>
